<?xml version="1.0" standalone="no"?><!DOCTYPE svg PUBLIC "-//W3C//DTD SVG 1.1//EN" "http://www.w3.org/Graphics/SVG/1.1/DTD/svg11.dtd" ><svg xmlns="http://www.w3.org/2000/svg"><metadata></metadata><defs><font id="KaiGen Gothic SC Bold:Version 1.001" horiz-adv-x="1007"><font-face font-family="KaiGen Gothic SC Bold" font-weight="700" font-stretch="normal" units-per-em="1000" panose-1="2 11 6 2 2 2 3 2 2 7" ascent="880" descent="-120" x-height="7" bbox="-54 -283 989 880" underline-thickness="50" underline-position="-125" unicode-range="U+0021-ffe5" /><missing-glyph horiz-adv-x="1000" d="M100 880 l800 0 l0 -1000 l-800 0 l0 1000 ZM818 830 l-636 0 l318 -409 l318 409 ZM850 -29 l0 818 l-318 -409 l318 -409 ZM818 -70 l-318 409 l-318 -409 l636 0 ZM150 -29 l318 409 l-318 409 l0 -818 Z" /><glyph glyph-name="" unicode="!" d="M116 621 l-5 139 l148 0 l-5 -139 l-21 -369 l-96 0 l-21 369 ZM185 -14 q-39 0 -65 28 q-26 27 -26 68 q0 41 26 68 q26 28 65 28 q39 0 66 -28 q26 -27 26 -68 q0 -41 -26 -68 q-27 -28 -66 -28 Z" /><glyph glyph-name="" unicode="&quot;" d="M92 641 l-5 139 l150 0 l-5 -139 l-29 -215 l-82 0 l-29 215 ZM342 641 l-5 139 l150 0 l-5 -139 l-29 -215 l-82 0 l-29 215 Z" /><glyph glyph-name="" unicode="#" d="M125 217 l-86 0 l0 95 l97 0 l17 137 l-91 0 l0 96 l103 0 l25 192 l85 0 l-23 -192 l126 0 l25 192 l85 0 l-22 -192 l89 0 l0 -96 l-101 0 l-17 -137 l95 0 l0 -95 l-106 0 l-26 -217 l-88 0 l26 217 l-125 0 l-27 -217 l-87 0 l26 217 ZM349 312 l17 137 l-126 0 l-17 -137 l126 0 Z" /><glyph glyph-name="" unicode="$" d="M437 557 q-64 59 -128 59 q-92 0 -92 -83 q0 -40 48 -72 q9 -6 104 -55 q152 -77 152 -202 q0 -83 -45 -139 q-46 -57 -131 -73 l0 -116 l-99 0 l0 112 q-117 14 -198 87 l65 99 q87 -68 165 -68 q102 0 102 88 q0 44 -47 79 q-18 14 -105 59 q-152 80 -152 194 q0 81 46 135 q45 54 124 69 l0 116 l99 0 l0 -114 q91 -13 166 -91 l-74 -84 Z" /><glyph glyph-name="" unicode="%" d="M212 285 q-81 0 -130 62 q-50 64 -50 174 q0 109 50 172 q49 61 130 61 q81 0 130 -61 q51 -63 51 -172 q0 -110 -51 -174 q-49 -62 -130 -62 ZM212 368 q77 0 77 153 q0 150 -77 150 q-76 0 -76 -150 q0 -153 76 -153 ZM639 754 l87 0 l-403 -768 l-86 0 l402 768 ZM750 -14 q-80 0 -129 63 q-51 64 -51 173 q0 110 51 173 q48 61 129 61 q81 0 130 -61 q51 -64 51 -173 q0 -109 -51 -173 q-50 -63 -130 -63 ZM750 70 q77 0 77 152 q0 151 -77 151 q-77 0 -77 -151 q0 -152 77 -152 Z" /><glyph glyph-name="" unicode="&amp;" d="M170 205 q0 -47 33 -77 q34 -29 87 -29 q52 0 108 37 q-96 79 -167 173 q-61 -53 -61 -104 ZM244 566 q0 -43 27 -99 q103 62 103 125 q0 64 -56 64 q-33 0 -53 -24 q-21 -25 -21 -66 ZM683 -14 q-93 21 -184 78 q-99 -78 -227 -78 q-112 0 -179 62 q-63 58 -63 148 q0 122 139 210 q-47 88 -47 160 q0 79 52 133 q55 55 142 55 q79 0 125 -44 q47 -44 47 -117 q0 -103 -159 -214 q66 -82 160 -154 q62 83 91 188 l133 0 q-42 -142 -125 -254 q76 -43 131 -53 l-36 -120 Z" /><glyph glyph-name="" unicode="&#39;" d="M92 641 l-5 139 l150 0 l-5 -139 l-29 -215 l-82 0 l-29 215 Z" /><glyph glyph-name="" unicode="(" d="M234 -202 q-149 246 -149 518 q0 273 149 517 l92 -39 q-122 -212 -122 -478 q0 -267 122 -479 l-92 -39 Z" /><glyph glyph-name="" unicode=")" d="M52 -163 q122 212 122 479 q0 266 -122 478 l91 39 q150 -243 150 -517 q0 -273 -150 -518 l-91 39 Z" /><glyph glyph-name="" unicode="*" d="M102 464 l66 114 l-119 53 l24 74 l128 -29 l13 132 l79 0 l12 -132 l128 29 l24 -74 l-120 -53 l67 -114 l-63 -46 l-88 100 l-88 -100 l-63 46 Z" /><glyph glyph-name="" unicode="+" d="M240 322 l-202 0 l0 104 l202 0 l0 213 l109 0 l0 -213 l202 0 l0 -104 l-202 0 l0 -213 l-109 0 l0 213 Z" /><glyph glyph-name="" unicode="," d="M53 -133 q120 45 120 137 l-9 0 q-38 0 -64 23 q-28 24 -28 64 q0 39 28 63 q27 24 67 24 q106 0 106 -145 q0 -183 -189 -246 l-31 80 Z" /><glyph glyph-name="" unicode="-&#x2011;" d="M49 339 l273 0 l0 -105 l-273 0 l0 105 Z" /><glyph glyph-name="" unicode="." d="M162 -14 q-39 0 -65 28 q-26 27 -26 68 q0 41 26 68 q26 28 65 28 q40 0 66 -28 q26 -27 26 -68 q0 -41 -26 -68 q-26 -28 -66 -28 Z" /><glyph glyph-name="" unicode="/" d="M262 805 l98 0 l-248 -987 l-98 0 l248 987 Z" /><glyph glyph-name="" unicode="0" d="M295 -14 q-116 0 -182 98 q-69 102 -69 289 q0 187 69 287 q65 94 182 94 q116 0 181 -95 q69 -99 69 -286 q0 -187 -69 -289 q-66 -98 -181 -98 ZM295 101 q111 0 111 272 q0 267 -111 267 q-112 0 -112 -267 q0 -272 112 -272 Z" /><glyph glyph-name="" unicode="1" d="M82 119 l159 0 l0 468 l-134 0 l0 91 q103 20 172 62 l109 0 l0 -621 l139 0 l0 -119 l-445 0 l0 119 Z" /><glyph glyph-name="" unicode="2" d="M43 85 q320 287 320 433 q0 56 -29 88 q-30 32 -82 32 q-67 0 -136 -76 l-80 80 q106 112 235 112 q105 0 169 -62 q64 -63 64 -166 q0 -169 -246 -410 q74 8 120 8 l161 0 l0 -124 l-496 0 l0 85 Z" /><glyph glyph-name="" unicode="3" d="M274 -14 q-157 0 -248 103 l69 93 q78 -76 165 -76 q57 0 91 27 q35 27 35 76 q0 59 -42 86 q-48 32 -162 32 l0 106 q180 0 180 113 q0 91 -99 93 q-69 -1 -140 -66 l-75 90 q104 91 222 91 q109 0 174 -51 q66 -52 66 -146 q0 -120 -124 -169 l0 -5 q148 -41 148 -182 q0 -99 -77 -158 q-73 -57 -183 -57 Z" /><glyph glyph-name="" unicode="4" d="M336 304 l0 151 q0 24 6 153 l-4 0 q-29 -63 -59 -120 l-115 -184 l172 0 ZM561 192 l-88 0 l0 -192 l-137 0 l0 192 l-315 0 l0 100 l276 448 l176 0 l0 -436 l88 0 l0 -112 Z" /><glyph glyph-name="" unicode="5" d="M276 -14 q-149 0 -250 101 l68 94 q77 -75 163 -75 q59 0 94 35 q37 37 37 101 q0 64 -34 99 q-34 35 -91 35 q-51 0 -111 -39 l-67 44 l20 359 l396 0 l0 -123 l-269 0 l-14 -157 q44 21 89 21 q99 0 161 -57 q67 -63 67 -178 q0 -119 -78 -192 q-73 -68 -181 -68 Z" /><glyph glyph-name="" unicode="6" d="M313 97 q43 0 71 34 q29 37 29 102 q0 129 -105 129 q-70 0 -121 -78 q19 -187 126 -187 ZM459 582 q-47 54 -114 54 q-153 0 -161 -249 q64 79 152 79 q97 0 153 -57 q59 -61 59 -176 q0 -111 -69 -180 q-65 -67 -163 -67 q-114 0 -186 89 q-80 100 -80 285 q0 195 87 301 q77 93 199 93 q119 0 201 -84 l-78 -88 Z" /><glyph glyph-name="" unicode="7" d="M186 0 q19 369 197 617 l-333 0 l0 123 l492 0 l0 -89 q-121 -148 -163 -295 q-34 -118 -44 -356 l-149 0 Z" /><glyph glyph-name="" unicode="8" d="M294 -14 q-106 0 -176 56 q-71 56 -71 142 q0 125 127 193 l0 5 q-98 70 -98 176 q0 88 63 142 q62 53 160 53 q98 0 157 -54 q58 -54 58 -143 q0 -101 -95 -169 l0 -5 q124 -67 124 -198 q0 -85 -68 -141 q-70 -57 -181 -57 ZM341 423 q53 56 53 124 q0 46 -26 74 q-26 29 -72 29 q-39 0 -64 -24 q-26 -25 -26 -68 q0 -81 135 -135 ZM298 90 q48 0 77 26 q31 26 31 73 q0 53 -46 88 q-32 25 -118 60 q-68 -54 -68 -137 q0 -49 36 -80 q35 -30 88 -30 Z" /><glyph glyph-name="" unicode="9" d="M280 379 q72 0 122 79 q-18 185 -127 185 q-43 0 -71 -34 q-29 -37 -29 -102 q0 -128 105 -128 ZM129 158 q48 -52 117 -52 q150 0 158 249 q-62 -81 -152 -81 q-96 0 -152 58 q-60 61 -60 175 q0 111 69 181 q66 66 164 66 q114 0 186 -87 q80 -98 80 -280 q0 -198 -87 -305 q-77 -96 -197 -96 q-121 0 -203 84 l77 88 Z" /><glyph glyph-name="" unicode=":" d="M162 366 q-39 0 -65 27 q-26 27 -26 68 q0 41 26 69 q26 27 65 27 q40 0 66 -27 q26 -28 26 -69 q0 -41 -26 -68 q-26 -27 -66 -27 ZM162 -14 q-39 0 -65 28 q-26 27 -26 68 q0 41 26 68 q26 28 65 28 q40 0 66 -28 q26 -27 26 -68 q0 -41 -26 -68 q-26 -28 -66 -28 Z" /><glyph glyph-name="" unicode=";" d="M162 366 q-39 0 -65 27 q-26 27 -26 68 q0 41 26 69 q26 27 65 27 q40 0 66 -27 q26 -28 26 -69 q0 -41 -26 -68 q-26 -27 -66 -27 ZM53 -133 q120 45 120 137 l-9 0 q-38 0 -64 23 q-28 24 -28 64 q0 39 28 63 q27 24 67 24 q106 0 106 -145 q0 -183 -189 -246 l-31 80 Z" /><glyph glyph-name="" unicode="&lt;" d="M38 324 l0 104 l513 198 l0 -121 l-210 -72 l-153 -54 l0 -5 l153 -54 l210 -72 l0 -122 l-513 198 Z" /><glyph glyph-name="" unicode="=" d="M38 556 l513 0 l0 -105 l-513 0 l0 105 ZM38 297 l513 0 l0 -105 l-513 0 l0 105 Z" /><glyph glyph-name="" unicode="&gt;" d="M38 248 l211 72 l153 54 l0 5 l-153 54 l-211 72 l0 121 l513 -198 l0 -104 l-513 -198 l0 122 Z" /><glyph glyph-name="" unicode="?" d="M177 252 q-13 90 64 185 q82 100 82 136 q0 38 -23 60 q-23 22 -62 22 q-57 0 -111 -56 l-81 74 q88 100 210 100 q94 0 149 -47 q59 -50 59 -143 q0 -69 -85 -166 q-82 -93 -74 -165 l-128 0 ZM241 -14 q-39 0 -65 28 q-26 27 -26 68 q0 41 26 68 q26 28 65 28 q40 0 66 -28 q26 -27 26 -68 q0 -41 -26 -68 q-26 -28 -66 -28 Z" /><glyph glyph-name="" unicode="@" d="M478 -190 q-180 0 -296 105 q-126 114 -126 317 q0 229 149 377 q143 143 352 143 q179 0 287 -111 q107 -109 107 -285 q0 -144 -82 -231 q-72 -78 -168 -78 q-110 0 -127 86 l-2 0 q-56 -76 -137 -76 q-65 0 -105 45 q-41 46 -41 123 q0 104 64 187 q68 87 162 87 q60 0 87 -56 l2 0 l16 47 l91 0 l-49 -244 q-26 -107 54 -107 q55 0 96 57 q44 62 44 155 q0 136 -74 218 q-82 92 -237 92 q-154 0 -268 -116 q-121 -123 -121 -309 q0 -160 99 -251 q91 -84 235 -84 q93 0 175 46 l33 -82 q-98 -55 -220 -55 ZM466 150 q38 0 83 56 l29 160 q-22 37 -59 37 q-51 0 -87 -58 q-32 -52 -32 -112 q0 -83 66 -83 Z" /><glyph glyph-name="" unicode="a" d="M406 305 l-22 81 q-13 44 -33 120 q-25 97 -32 122 l-4 0 q-28 -120 -63 -242 l-22 -81 l176 0 ZM438 190 l-240 0 l-52 -190 l-150 0 l237 740 l174 0 l238 -740 l-155 0 l-52 190 Z" /><glyph glyph-name="" unicode="b" d="M91 740 l245 0 q268 0 268 -182 q0 -53 -27 -97 q-28 -47 -74 -63 l0 -5 q139 -33 139 -175 q0 -107 -82 -165 q-76 -53 -205 -53 l-264 0 l0 740 ZM325 439 q135 0 135 97 q0 91 -133 91 l-88 0 l0 -188 l86 0 ZM342 114 q156 0 156 113 q0 102 -156 102 l-103 0 l0 -215 l103 0 Z" /><glyph glyph-name="" unicode="c" d="M393 -14 q-146 0 -240 98 q-99 104 -99 283 q0 177 102 285 q96 102 242 102 q126 0 217 -95 l-78 -94 q-64 62 -136 62 q-86 0 -140 -68 q-56 -70 -56 -187 q0 -120 53 -189 q52 -69 140 -69 q85 0 153 73 l78 -92 q-94 -109 -236 -109 Z" /><glyph glyph-name="" unicode="d" d="M91 740 l203 0 q174 0 268 -90 q98 -94 98 -277 q0 -183 -97 -280 q-94 -93 -261 -93 l-211 0 l0 740 ZM285 119 q224 0 224 254 q0 249 -224 249 l-46 0 l0 -503 l46 0 Z" /><glyph glyph-name="" unicode="e" d="M91 740 l454 0 l0 -123 l-306 0 l0 -171 l260 0 l0 -124 l-260 0 l0 -198 l317 0 l0 -124 l-465 0 l0 740 Z" /><glyph glyph-name="" unicode="f" d="M91 740 l456 0 l0 -123 l-308 0 l0 -193 l263 0 l0 -124 l-263 0 l0 -300 l-148 0 l0 740 Z" /><glyph glyph-name="" unicode="g" d="M409 -14 q-157 0 -253 98 q-102 103 -102 283 q0 178 104 285 q98 102 251 102 q136 0 229 -95 l-79 -94 q-64 62 -145 62 q-94 0 -151 -68 q-58 -69 -58 -187 q0 -123 55 -189 q57 -69 164 -69 q60 0 93 28 l0 146 l-131 0 l0 121 l263 0 l0 -334 q-91 -89 -240 -89 Z" /><glyph glyph-name="" unicode="h" d="M91 740 l148 0 l0 -291 l280 0 l0 291 l147 0 l0 -740 l-147 0 l0 320 l-280 0 l0 -320 l-148 0 l0 740 Z" /><glyph glyph-name="" unicode="i" d="M91 740 l148 0 l0 -740 l-148 0 l0 740 Z" /><glyph glyph-name="" unicode="j" d="M252 -14 q-154 0 -230 130 l102 75 q41 -77 110 -77 q99 0 99 137 l0 489 l148 0 l0 -501 q0 -111 -55 -179 q-60 -74 -174 -74 Z" /><glyph glyph-name="" unicode="k" d="M91 740 l148 0 l0 -321 l3 0 l245 321 l163 0 l-226 -291 l266 -449 l-163 0 l-191 332 l-97 -124 l0 -208 l-148 0 l0 740 Z" /><glyph glyph-name="" unicode="l" d="M91 740 l148 0 l0 -616 l300 0 l0 -124 l-448 0 l0 740 Z" /><glyph glyph-name="" unicode="m" d="M91 740 l164 0 l126 -346 l45 -143 l5 0 l23 72 q13 46 22 71 l123 346 l164 0 l0 -740 l-135 0 l0 309 q0 63 18 243 l-4 0 l-60 -174 l-114 -311 l-85 0 l-115 311 l-59 174 l-4 0 q19 -190 19 -243 l0 -309 l-133 0 l0 740 Z" /><glyph glyph-name="" unicode="n" d="M91 740 l151 0 l215 -394 l74 -160 l5 0 q-19 183 -19 259 l0 295 l140 0 l0 -740 l-150 0 l-214 396 l-75 159 l-5 0 q18 -206 18 -258 l0 -297 l-140 0 l0 740 Z" /><glyph glyph-name="" unicode="o" d="M385 -14 q-149 0 -239 104 q-92 105 -92 283 q0 178 92 281 q90 100 239 100 q149 0 239 -100 q92 -104 92 -281 q0 -178 -92 -283 q-90 -104 -239 -104 ZM385 114 q82 0 131 70 q49 70 49 189 q0 119 -49 187 q-48 67 -131 67 q-83 0 -131 -67 q-49 -68 -49 -187 q0 -119 49 -189 q49 -70 131 -70 Z" /><glyph glyph-name="" unicode="p" d="M91 740 l243 0 q290 0 290 -232 q0 -121 -83 -186 q-76 -59 -203 -59 l-99 0 l0 -263 l-148 0 l0 740 ZM328 380 q151 0 151 128 q0 62 -40 90 q-37 25 -116 25 l-84 0 l0 -243 l89 0 Z" /><glyph glyph-name="" unicode="q" d="M205 373 q0 -124 49 -195 q48 -71 131 -71 q83 0 131 71 q49 71 49 195 q0 119 -49 187 q-48 67 -131 67 q-83 0 -131 -67 q-49 -68 -49 -187 ZM748 -179 q-46 -22 -124 -22 q-219 0 -307 193 q-120 23 -191 123 q-72 102 -72 258 q0 178 92 281 q90 100 239 100 q149 0 239 -100 q92 -104 92 -281 q0 -149 -66 -249 q-65 -98 -177 -127 q48 -79 168 -79 q45 0 81 12 l26 -109 Z" /><glyph glyph-name="" unicode="r" d="M239 397 l96 0 q147 0 147 119 q0 107 -147 107 l-96 0 l0 -226 ZM494 0 l-152 280 l-103 0 l0 -280 l-148 0 l0 740 l258 0 q278 0 278 -224 q0 -158 -141 -213 l173 -303 l-165 0 Z" /><glyph glyph-name="" unicode="s" d="M312 -14 q-157 0 -270 108 l85 102 q89 -82 188 -82 q118 0 118 85 q0 37 -31 60 q-18 14 -80 40 l-99 42 q-150 62 -150 199 q0 92 72 152 q72 62 184 62 q139 0 232 -95 l-75 -93 q-74 61 -157 61 q-49 0 -78 -21 q-29 -21 -29 -57 q0 -35 34 -59 q20 -13 82 -38 l97 -41 q149 -61 149 -201 q0 -94 -72 -157 q-76 -67 -200 -67 Z" /><glyph glyph-name="" unicode="t" d="M238 617 l-208 0 l0 123 l566 0 l0 -123 l-210 0 l0 -617 l-148 0 l0 617 Z" /><glyph glyph-name="" unicode="u" d="M375 -14 q-288 0 -288 347 l0 407 l148 0 l0 -420 q0 -206 140 -206 q144 0 144 206 l0 420 l142 0 l0 -407 q0 -347 -286 -347 Z" /><glyph glyph-name="" unicode="v" d="M-5 740 l155 0 l98 -360 q11 -38 31 -119 q18 -76 31 -120 l5 0 l32 120 q19 77 31 119 l96 360 l150 0 l-227 -740 l-176 0 l-226 740 Z" /><glyph glyph-name="" unicode="w" d="M18 740 l151 0 l59 -361 l34 -236 l4 0 q22 114 47 236 l86 361 l126 0 l86 -361 l47 -236 l5 0 q18 133 33 236 l58 361 l141 0 l-137 -740 l-184 0 l-83 366 q-20 98 -32 171 l-4 0 q-21 -119 -32 -171 l-81 -366 l-181 0 l-143 740 Z" /><glyph glyph-name="" unicode="x" d="M222 382 l-195 358 l164 0 l100 -206 q18 -41 29 -63 l5 0 q27 68 49 117 l70 152 l156 0 l-195 -365 l208 -375 l-164 0 l-83 164 l-58 122 l-4 0 q-31 -74 -54 -122 l-79 -164 l-157 0 l208 382 Z" /><glyph glyph-name="" unicode="y" d="M216 271 l-222 469 l157 0 l74 -180 q38 -100 64 -164 l4 0 l140 344 l154 0 l-223 -469 l0 -271 l-148 0 l0 271 Z" /><glyph glyph-name="" unicode="z" d="M43 89 l345 528 l-312 0 l0 123 l493 0 l0 -88 l-344 -528 l348 0 l0 -124 l-530 0 l0 89 Z" /><glyph glyph-name="" unicode="[" d="M101 803 l229 0 l0 -78 l-119 0 l0 -818 l119 0 l0 -80 l-229 0 l0 976 Z" /><glyph glyph-name="" unicode="\" d="M28 805 l97 0 l249 -987 l-98 0 l-248 987 Z" /><glyph glyph-name="" unicode="]" d="M48 -93 l119 0 l0 818 l-119 0 l0 78 l229 0 l0 -976 l-229 0 l0 80 Z" /><glyph glyph-name="" unicode="^" d="M234 760 l121 0 l175 -447 l-122 0 l-59 161 l-52 153 l-5 0 l-52 -153 l-58 -161 l-122 0 l174 447 Z" /><glyph glyph-name="" unicode="_" d="M14 -69 l540 0 l0 -86 l-540 0 l0 86 Z" /><glyph glyph-name="" unicode="a" d="M217 -14 q-74 0 -120 47 q-46 47 -46 119 q0 90 77 140 q76 49 245 67 q-4 97 -95 97 q-62 0 -154 -53 l-53 97 q119 74 234 74 q215 0 215 -247 l0 -327 l-120 0 l-11 60 l-3 0 q-86 -74 -169 -74 ZM265 101 q53 0 108 55 l0 113 q-182 -24 -182 -105 q0 -63 74 -63 Z" /><glyph glyph-name="" unicode="b" d="M360 -14 q-79 0 -150 73 l-3 0 l-13 -59 l-115 0 l0 798 l146 0 l0 -201 l-3 -90 q74 67 155 67 q103 0 162 -78 q59 -77 59 -206 q0 -139 -73 -224 q-68 -80 -165 -80 ZM327 107 q54 0 86 44 q34 48 34 136 q0 166 -111 166 q-53 0 -111 -58 l0 -246 q47 -42 102 -42 Z" /><glyph glyph-name="" unicode="c" d="M317 -14 q-119 0 -195 77 q-78 81 -78 216 q0 135 86 218 q81 77 200 77 q90 0 163 -62 l-70 -95 q-43 37 -86 37 q-64 0 -103 -48 q-40 -48 -40 -127 q0 -78 39 -126 q39 -47 100 -47 q55 0 109 45 l58 -97 q-77 -68 -183 -68 Z" /><glyph glyph-name="" unicode="d" d="M276 -14 q-105 0 -167 78 q-62 79 -62 215 q0 132 72 216 q68 79 163 79 q76 0 142 -61 l-6 88 l0 197 l147 0 l0 -798 l-119 0 l-12 58 l-3 0 q-74 -72 -155 -72 ZM314 107 q60 0 104 58 l0 246 q-46 42 -104 42 q-50 0 -82 -44 q-34 -47 -34 -128 q0 -174 116 -174 Z" /><glyph glyph-name="" unicode="e" d="M322 -14 q-120 0 -197 78 q-81 80 -81 215 q0 131 80 216 q76 79 181 79 q112 0 175 -76 q59 -72 59 -192 q0 -44 -7 -67 l-345 0 q18 -140 155 -140 q64 0 126 39 l50 -90 q-90 -62 -196 -62 ZM413 336 q0 124 -106 124 q-46 0 -79 -31 q-35 -34 -43 -93 l228 0 Z" /><glyph glyph-name="" unicode="f" d="M378 684 q-33 12 -59 12 q-68 0 -68 -88 l0 -48 l105 0 l0 -116 l-105 0 l0 -444 l-147 0 l0 444 l-75 0 l0 109 l75 6 l0 46 q0 207 195 207 q56 0 106 -20 l-27 -108 Z" /><glyph glyph-name="" unicode="g" d="M276 -243 q-104 0 -166 35 q-68 38 -68 109 q0 71 80 116 l0 5 q-51 33 -51 94 q0 60 62 105 l0 4 q-74 55 -74 146 q0 95 68 151 q64 52 158 52 q44 0 84 -14 l202 0 l0 -108 l-96 0 q26 -33 26 -85 q0 -91 -63 -142 q-59 -48 -153 -48 q-33 0 -72 13 q-24 -19 -24 -48 q0 -46 88 -46 l95 0 q208 0 208 -140 q0 -86 -82 -142 q-84 -57 -222 -57 ZM285 268 q38 0 62 27 q25 28 25 76 q0 48 -25 76 q-23 27 -62 27 q-39 0 -63 -27 q-25 -28 -25 -76 q0 -48 26 -76 q24 -27 62 -27 ZM298 -150 q62 0 103 24 q39 23 39 57 q0 50 -93 50 l-68 0 q-46 0 -78 8 q-37 -30 -37 -65 q0 -74 134 -74 Z" /><glyph glyph-name="" unicode="h" d="M79 798 l146 0 l0 -201 l-6 -105 q88 82 176 82 q173 0 173 -225 l0 -349 l-147 0 l0 331 q0 64 -19 91 q-18 26 -60 26 q-52 0 -117 -63 l0 -385 l-146 0 l0 798 Z" /><glyph glyph-name="" unicode="i" d="M79 560 l146 0 l0 -560 l-146 0 l0 560 ZM153 650 q-38 0 -63 23 q-25 22 -25 57 q0 36 25 58 q24 22 63 22 q38 0 62 -22 q25 -22 25 -58 q0 -34 -25 -57 q-24 -23 -62 -23 Z" /><glyph glyph-name="" unicode="j" d="M40 -229 q-53 0 -94 15 l26 109 q24 -8 46 -8 q62 0 62 95 l0 578 l147 0 l0 -574 q0 -215 -187 -215 ZM154 650 q-38 0 -63 23 q-25 22 -25 57 q0 36 25 58 q24 22 63 22 q38 0 63 -22 q25 -22 25 -58 q0 -34 -25 -57 q-25 -23 -63 -23 Z" /><glyph glyph-name="" unicode="k" d="M79 798 l143 0 l0 -480 l4 0 l194 242 l160 0 l-194 -229 l212 -331 l-159 0 l-136 232 l-81 -92 l0 -140 l-143 0 l0 798 Z" /><glyph glyph-name="" unicode="l" d="M217 -14 q-138 0 -138 171 l0 641 l146 0 l0 -648 q0 -44 30 -44 q10 0 20 2 l18 -109 q-32 -13 -76 -13 Z" /><glyph glyph-name="" unicode="m" d="M79 560 l120 0 l10 -75 l4 0 q85 89 172 89 q111 0 154 -98 q93 98 178 98 q174 0 174 -225 l0 -349 l-147 0 l0 331 q0 117 -78 117 q-48 0 -108 -63 l0 -385 l-147 0 l0 331 q0 117 -78 117 q-48 0 -108 -63 l0 -385 l-146 0 l0 560 Z" /><glyph glyph-name="" unicode="n" d="M79 560 l120 0 l10 -74 l4 0 q90 88 182 88 q173 0 173 -225 l0 -349 l-147 0 l0 331 q0 64 -19 91 q-18 26 -60 26 q-52 0 -117 -63 l0 -385 l-146 0 l0 560 Z" /><glyph glyph-name="" unicode="o" d="M313 -14 q-110 0 -187 77 q-82 83 -82 216 q0 135 82 218 q76 77 187 77 q111 0 187 -77 q82 -83 82 -218 q0 -133 -82 -216 q-77 -77 -187 -77 ZM313 106 q56 0 88 47 q31 46 31 126 q0 81 -31 127 q-32 48 -88 48 q-56 0 -88 -48 q-31 -46 -31 -127 q0 -80 31 -126 q32 -47 88 -47 Z" /><glyph glyph-name="" unicode="p" d="M79 560 l120 0 l10 -58 l4 0 q85 72 165 72 q103 0 162 -78 q58 -77 58 -207 q0 -138 -73 -223 q-68 -80 -165 -80 q-72 0 -139 61 l4 -92 l0 -170 l-146 0 l0 775 ZM327 107 q54 0 86 44 q34 48 34 136 q0 166 -111 166 q-53 0 -111 -58 l0 -246 q49 -42 102 -42 Z" /><glyph glyph-name="" unicode="q" d="M418 -37 l6 90 q-65 -67 -148 -67 q-105 0 -167 78 q-62 79 -62 215 q0 132 72 216 q68 79 163 79 q86 0 152 -69 l4 0 l12 55 l115 0 l0 -775 l-147 0 l0 178 ZM314 107 q60 0 104 58 l0 246 q-46 42 -104 42 q-50 0 -82 -44 q-34 -47 -34 -128 q0 -174 116 -174 Z" /><glyph glyph-name="" unicode="r" d="M79 560 l120 0 l10 -99 l4 0 q63 113 159 113 q37 0 66 -12 l-26 -127 q-28 9 -58 9 q-86 0 -129 -110 l0 -334 l-146 0 l0 560 Z" /><glyph glyph-name="" unicode="s" d="M239 -14 q-119 0 -213 79 l67 92 q78 -61 150 -61 q81 0 81 59 q0 28 -36 49 q-18 10 -81 35 q-153 58 -153 163 q0 76 57 124 q57 48 151 48 q98 0 191 -69 l-66 -89 q-69 48 -121 48 q-74 0 -74 -54 q0 -27 35 -46 q13 -7 79 -32 q73 -28 106 -56 q50 -43 50 -113 q0 -77 -57 -125 q-60 -52 -166 -52 Z" /><glyph glyph-name="" unicode="t" d="M284 -14 q-184 0 -184 210 l0 248 l-79 0 l0 109 l86 7 l17 150 l123 0 l0 -150 l138 0 l0 -116 l-138 0 l0 -248 q0 -94 76 -94 q25 0 55 12 l24 -107 q-63 -21 -118 -21 Z" /><glyph glyph-name="" unicode="u" d="M245 -14 q-172 0 -172 224 l0 350 l147 0 l0 -331 q0 -64 19 -91 q18 -26 59 -26 q61 0 114 70 l0 378 l147 0 l0 -560 l-120 0 l-11 80 l-4 0 q-79 -94 -179 -94 Z" /><glyph glyph-name="" unicode="v" d="M14 560 l148 0 l82 -279 l45 -170 l5 0 q12 50 45 170 l82 279 l141 0 l-187 -560 l-170 0 l-191 560 Z" /><glyph glyph-name="" unicode="w" d="M27 560 l147 0 l61 -277 q6 -30 14 -81 q10 -62 14 -82 l4 0 q25 126 35 163 l67 277 l131 0 l70 -277 q8 -32 18 -81 l17 -82 l5 0 q4 20 14 82 q8 51 14 81 l61 277 l136 0 l-138 -560 l-173 0 l-59 244 q-9 40 -32 163 l-5 0 l-31 -163 l-57 -244 l-168 0 l-145 560 Z" /><glyph glyph-name="" unicode="x" d="M191 292 l-164 268 l158 0 l56 -100 q25 -48 50 -94 l4 0 l41 94 l47 100 l152 0 l-164 -285 l175 -275 l-158 0 l-62 102 l-54 99 l-5 0 l-47 -99 l-52 -102 l-152 0 l175 292 Z" /><glyph glyph-name="" unicode="y" d="M128 -225 q-42 0 -77 11 l27 113 q23 -7 39 -7 q77 0 105 85 l10 33 l-218 550 l148 0 l89 -260 l47 -158 l5 0 q7 26 20 79 q14 53 20 79 l77 260 l141 0 l-199 -577 q-39 -106 -88 -153 q-57 -55 -146 -55 Z" /><glyph glyph-name="" unicode="z" d="M41 79 l250 365 l-222 0 l0 116 l406 0 l0 -79 l-251 -365 l259 0 l0 -116 l-442 0 l0 79 Z" /><glyph glyph-name="" unicode="{" d="M265 -173 q-76 0 -108 34 q-34 36 -34 125 q0 42 5 103 q5 62 5 97 q0 83 -97 86 l0 87 q97 1 97 85 q0 36 -5 97 q-5 62 -5 103 q0 89 34 125 q32 34 108 34 l65 0 l0 -78 l-23 0 q-38 0 -52 -19 q-13 -18 -13 -68 q0 -30 3 -92 q2 -61 2 -98 q0 -111 -80 -130 l0 -5 q80 -19 80 -130 q0 -36 -2 -98 q-3 -61 -3 -92 q0 -50 13 -68 q13 -18 52 -18 l23 0 l0 -80 l-65 0 Z" /><glyph glyph-name="" unicode="|" d="M100 851 l96 0 l0 -1134 l-96 0 l0 1134 Z" /><glyph glyph-name="" unicode="}" d="M48 -93 l23 0 q38 0 52 18 q13 18 13 68 q0 31 -2 92 q-3 62 -3 98 q0 111 80 130 l0 5 q-80 19 -80 130 q0 37 3 98 q2 62 2 92 q0 50 -13 68 q-14 19 -52 19 l-23 0 l0 78 l65 0 q76 0 108 -34 q34 -36 34 -125 q0 -41 -5 -103 q-6 -61 -6 -97 q0 -84 97 -85 l0 -87 q-97 -3 -97 -86 q0 -35 6 -97 q5 -61 5 -103 q0 -89 -34 -125 q-32 -34 -108 -34 l-65 0 l0 80 Z" /><glyph glyph-name="" unicode="~" d="M392 278 q-50 0 -110 44 q-59 44 -87 44 q-47 0 -83 -66 l-77 58 q72 113 163 113 q50 0 109 -44 q60 -44 87 -44 q47 0 83 65 l77 -58 q-71 -112 -162 -112 Z" /><glyph glyph-name="" unicode="&#x2014;" d="M49 334 l810 0 l0 -95 l-810 0 l0 95 Z" /><glyph glyph-name="" unicode="&#x2026;" d="M86 380 q0 34 24 57 q23 24 57 24 q34 0 57 -24 q24 -23 24 -57 q0 -34 -24 -57 q-23 -24 -57 -24 q-34 0 -57 24 q-24 23 -24 57 ZM419 380 q0 34 24 57 q23 24 57 24 q34 0 57 -24 q24 -23 24 -57 q0 -34 -24 -57 q-23 -24 -57 -24 q-34 0 -57 24 q-24 23 -24 57 ZM752 380 q0 34 24 57 q23 24 57 24 q34 0 57 -24 q24 -23 24 -57 q0 -34 -24 -57 q-23 -24 -57 -24 q-34 0 -57 24 q-24 23 -24 57 Z" /><glyph glyph-name="" unicode="&#x3001;" d="M255 -69 q-99 121 -215 221 l104 90 q115 -94 218 -219 l-107 -92 Z" /><glyph glyph-name="" unicode="&#x3002;" d="M193 248 q67 0 115 -48 q47 -47 47 -114 q0 -67 -47 -114 q-48 -48 -115 -48 q-66 0 -113 48 q-48 47 -48 114 q0 67 48 114 q47 48 113 48 ZM193 -3 q38 0 64 26 q26 26 26 63 q0 38 -26 64 q-26 26 -64 26 q-36 0 -62 -26 q-27 -27 -27 -64 q0 -37 27 -63 q26 -26 62 -26 Z" /><glyph glyph-name="" unicode="&#x2329;&#x3008;" d="M946 -49 l-99 -43 l-287 472 l287 472 l99 -43 l-261 -429 l261 -429 Z" /><glyph glyph-name="" unicode="&#x232a;&#x3009;" d="M54 -49 l261 429 l-261 429 l99 43 l287 -472 l-287 -472 l-99 43 Z" /><glyph glyph-name="" unicode="&#x300a;" d="M800 -66 l-83 -26 l-199 472 l199 472 l83 -26 l-189 -446 l189 -446 ZM973 -66 l-84 -26 l-198 472 l198 472 l84 -26 l-190 -446 l190 -446 Z" /><glyph glyph-name="" unicode="&#x300b;" d="M200 -66 l189 446 l-189 446 l83 26 l199 -472 l-199 -472 l-83 26 ZM27 -66 l190 446 l-190 446 l84 26 l198 -472 l-198 -472 l-84 26 Z" /><glyph glyph-name="" unicode="&#x300c;" d="M641 852 l331 0 l0 -108 l-213 0 l0 -531 l-118 0 l0 639 Z" /><glyph glyph-name="" unicode="&#x300d;" d="M360 -92 l-332 0 l0 108 l213 0 l0 531 l119 0 l0 -639 Z" /><glyph glyph-name="" unicode="&#x300e;" d="M792 674 l0 -483 l-192 0 l0 661 l372 0 l0 -178 l-180 0 ZM644 808 l0 -573 l105 0 l0 483 l179 0 l0 90 l-284 0 Z" /><glyph glyph-name="" unicode="&#x300f;" d="M208 86 l0 483 l192 0 l0 -661 l-372 0 l0 178 l180 0 ZM356 -48 l0 573 l-105 0 l0 -483 l-179 0 l0 -90 l284 0 Z" /><glyph glyph-name="" unicode="&#x3010;" d="M972 852 l0 -5 q-198 -171 -198 -467 q0 -296 198 -467 l0 -5 l-312 0 l0 944 l312 0 Z" /><glyph glyph-name="" unicode="&#x3011;" d="M340 -92 l-312 0 l0 5 q198 171 198 467 q0 296 -198 467 l0 5 l312 0 l0 -944 Z" /><glyph glyph-name="" unicode="&#x3014;" d="M693 46 l0 668 l234 150 l48 -79 l-172 -110 l0 -590 l172 -110 l-48 -79 l-234 150 Z" /><glyph glyph-name="" unicode="&#x3015;" d="M73 -104 l-48 79 l172 110 l0 590 l-172 110 l48 79 l234 -150 l0 -668 l-234 -150 Z" /><glyph glyph-name="" unicode="&#x301c;&#xff5e;" d="M691 227 q-135 0 -236 110 q-69 72 -149 72 q-95 0 -159 -120 l-110 60 q99 184 272 184 q135 0 236 -110 q67 -72 149 -72 q95 0 159 120 l110 -60 q-99 -184 -272 -184 Z" /><glyph glyph-name="" unicode="&#x2f00;&#x4e00;" d="M961 454 l0 -129 l-920 0 l0 129 l920 0 Z" /><glyph glyph-name="" unicode="&#x4e09;" d="M879 751 l0 -120 l-758 0 l0 120 l758 0 ZM800 432 l0 -121 l-610 0 l0 121 l610 0 ZM933 95 l0 -122 l-868 0 l0 122 l868 0 Z" /><glyph glyph-name="" unicode="&#x4e0a;" d="M955 82 l0 -120 l-909 0 l0 120 l358 0 l0 753 l128 0 l0 -286 l353 0 l0 -121 l-353 0 l0 -346 l423 0 Z" /><glyph glyph-name="" unicode="&#x4e0d;&#xf967;" d="M639 524 q250 -180 333 -271 l-101 -91 q-84 101 -306 271 l0 -518 l-130 0 l0 488 q-149 -159 -318 -246 q-35 60 -82 108 q268 125 431 393 l-399 0 l0 122 l867 0 l0 -122 l-311 0 q-23 -42 -58 -92 l0 -104 l74 62 Z" /><glyph glyph-name="" unicode="&#x4e1a;" d="M186 226 q-34 150 -120 379 l109 32 q95 -237 130 -369 l-119 -42 ZM948 78 l0 -119 l-894 0 l0 119 l258 0 l0 756 l123 0 l0 -756 l131 0 l0 756 l123 0 l0 -551 q92 175 143 351 l107 -51 q-68 -195 -159 -363 l-91 46 l0 -188 l259 0 Z" /><glyph glyph-name="" unicode="&#x4e2d;" d="M787 342 l0 215 l-226 0 l0 -215 l226 0 ZM435 342 l0 215 l-225 0 l0 -215 l225 0 ZM912 674 l0 -499 l-125 0 l0 50 l-226 0 l0 -312 l-126 0 l0 312 l-225 0 l0 -55 l-120 0 l0 504 l345 0 l0 173 l126 0 l0 -173 l351 0 Z" /><glyph glyph-name="" unicode="&#x4e3a;" d="M231 627 q-24 61 -93 153 l104 43 q74 -90 99 -150 l-110 -46 ZM912 615 q-1 -41 -2 -57 q-18 -517 -65 -577 q-35 -46 -99 -55 q-44 -7 -160 -3 q-4 65 -41 125 q61 -5 145 -5 q28 0 43 16 q36 37 50 435 l-290 0 q-54 -370 -347 -562 q-35 50 -95 88 q261 164 318 474 l-293 0 l0 121 l307 0 q3 51 3 96 l0 135 l121 0 l0 -136 q0 -27 -2 -95 l407 0 ZM597 166 q-32 78 -115 189 l100 46 q84 -102 122 -182 l-107 -53 Z" /><glyph glyph-name="" unicode="&#x4e3b;" d="M950 61 l0 -117 l-895 0 l0 117 l380 0 l0 193 l-285 0 l0 115 l285 0 l0 173 l-338 0 l0 116 l400 0 q-51 50 -150 122 l98 68 q130 -84 192 -151 l-53 -39 l317 0 l0 -116 l-335 0 l0 -173 l287 0 l0 -115 l-287 0 l0 -193 l384 0 Z" /><glyph glyph-name="" unicode="&#x4e60;" d="M703 246 q-262 -98 -570 -207 l-41 120 q214 62 588 196 l23 -109 ZM300 624 q211 -153 250 -189 l-85 -90 q-61 61 -244 200 l79 79 ZM904 727 q-8 -665 -55 -733 q-36 -54 -105 -65 q-47 -6 -182 -2 q-2 53 -39 113 q76 -5 170 -5 q29 0 43 18 q39 39 46 621 l-674 0 l0 114 l796 0 l0 -61 Z" /><glyph glyph-name="" unicode="&#x4e8e;" d="M948 342 l-375 0 l0 -275 q0 -101 -64 -126 q-54 -23 -219 -23 q-11 58 -50 126 q109 -6 176 -3 q31 1 31 27 l0 274 l-395 0 l0 118 l395 0 l0 205 l-327 0 l0 118 l760 0 l0 -118 l-307 0 l0 -205 l375 0 l0 -118 Z" /><glyph glyph-name="" unicode="&#x2f08;&#x4eba;" d="M559 846 q-2 -79 -7 -156 q52 -502 424 -666 q-61 -48 -87 -103 q-276 132 -391 473 q-101 -322 -368 -479 q-36 54 -99 97 q260 139 346 435 q39 132 45 399 l137 0 Z" /><glyph glyph-name="" unicode="&#x4ecb;" d="M256 435 l126 0 l0 -113 q0 -128 -36 -213 q-51 -122 -184 -197 q-37 50 -100 89 q194 103 194 324 l0 110 ZM632 437 l127 0 l0 -524 l-127 0 l0 524 ZM591 792 q-12 -18 -19 -27 q144 -170 415 -234 q-53 -47 -85 -112 q-242 73 -403 259 q-175 -182 -408 -273 q-32 67 -73 115 q143 43 275 137 q132 94 201 203 l97 -68 Z" /><glyph glyph-name="" unicode="&#x4ece;" d="M436 166 q-39 81 -115 184 q-52 -281 -176 -431 q-42 40 -118 83 q190 198 209 831 l131 -4 q-6 -175 -24 -328 q127 -136 183 -248 l-90 -87 ZM753 828 q-10 -195 -28 -321 q74 -343 248 -465 q-58 -49 -89 -110 q-130 110 -206 337 q-62 -223 -187 -349 q-40 38 -118 83 q129 112 188 334 q48 183 60 496 l132 -5 Z" /><glyph glyph-name="" unicode="&#x4ed6;" d="M354 808 q-39 -101 -93 -201 l0 -692 l-118 0 l0 509 q-31 -42 -63 -75 q-29 71 -64 120 q149 149 228 375 l110 -36 ZM787 35 q43 0 58 26 q13 25 20 111 q46 -30 108 -46 q-12 -114 -47 -154 q-37 -44 -130 -44 l-221 0 q-107 0 -145 37 q-38 36 -38 139 l0 273 l-75 -29 l-46 105 l121 47 l0 236 l118 0 l0 -189 l97 37 l0 259 l111 0 l0 -215 l101 38 l15 12 l22 15 l81 -31 l-4 -18 q-2 -284 -9 -338 q-7 -69 -56 -90 q-36 -16 -113 -14 q-4 68 -26 109 q44 -2 61 -2 q20 0 25 23 q6 25 7 215 l-104 -41 l0 -356 l-111 0 l0 312 l-97 -38 l0 -320 q0 -45 13 -57 q13 -12 61 -12 l203 0 Z" /><glyph glyph-name="" unicode="&#x4efb;" d="M712 317 l0 -256 l240 0 l0 -114 l-592 0 l0 114 l231 0 l0 256 l-271 0 l0 115 l271 0 l0 222 q-80 -14 -208 -29 q-7 41 -34 99 q-26 -58 -62 -120 l0 -690 l-119 0 l0 512 q-47 -59 -81 -92 q-25 61 -70 125 q162 149 250 385 l118 -37 q-19 -47 -35 -80 q322 41 501 106 l87 -100 q-99 -33 -226 -57 l0 -244 l250 0 l0 -115 l-250 0 Z" /><glyph glyph-name="" unicode="&#x4f1a;" d="M704 234 q149 -130 223 -256 l-106 -65 q-17 33 -49 76 q-565 -41 -611 -59 q-13 54 -40 121 q31 7 79 49 q49 37 132 138 l-242 0 l0 115 l827 0 l0 -115 l-420 0 q-72 -89 -157 -165 l348 20 q-51 56 -86 89 l102 52 ZM679 546 q-107 71 -177 137 q-67 -67 -167 -137 l344 0 ZM604 800 l-33 -42 q172 -145 402 -219 q-48 -46 -83 -105 q-73 30 -155 77 l0 -74 l-467 0 l0 66 q-87 -49 -153 -79 q-37 64 -85 106 q316 120 466 322 l108 -52 Z" /><glyph glyph-name="" unicode="&#x4f4d;" d="M597 679 q-10 59 -44 154 l113 28 q29 -69 51 -152 l-105 -30 l308 0 l0 -115 l-557 0 l0 115 l234 0 ZM481 95 q-15 194 -59 413 l108 24 q49 -215 68 -404 l-117 -33 ZM372 808 q-42 -110 -93 -202 l0 -692 l-120 0 l0 505 q-35 -43 -63 -74 q-24 67 -64 124 q146 146 228 374 l112 -35 ZM954 67 l0 -115 l-627 0 l0 115 l348 0 q58 222 82 468 l124 -19 q-42 -253 -97 -449 l170 0 Z" /><glyph glyph-name="" unicode="&#x4f53;" d="M336 809 q-33 -96 -80 -193 l0 -701 l-113 0 l0 508 q-32 -43 -61 -78 q-27 70 -66 124 q134 145 207 374 l113 -34 ZM805 187 q-70 115 -123 261 l0 -261 l123 0 ZM566 187 l0 254 q-51 -142 -122 -254 l122 0 ZM741 556 q92 -259 244 -401 q-56 -44 -89 -92 q-36 39 -80 106 l0 -88 l-134 0 l0 -161 l-116 0 l0 161 l-131 0 l0 92 q-48 -72 -89 -113 q-41 57 -85 90 q156 139 249 406 l-197 0 l0 113 l253 0 l0 173 l116 0 l0 -173 l276 0 l0 -113 l-217 0 Z" /><glyph glyph-name="" unicode="&#x4f5c;" d="M368 807 q-39 -104 -96 -208 l0 -685 l-120 0 l0 500 q-42 -50 -62 -72 q-27 71 -66 127 q148 146 228 374 l116 -36 ZM685 571 l0 -105 l259 0 l0 -108 l-259 0 l0 -113 l272 0 l0 -110 l-272 0 l0 -222 l-122 0 l0 658 l-38 0 q-61 -114 -131 -194 q-35 40 -91 83 q138 141 212 377 l115 -29 q-22 -65 -49 -124 l388 0 l0 -113 l-284 0 Z" /><glyph glyph-name="" unicode="&#x4fdd;" d="M366 809 q-44 -110 -93 -197 l0 -697 l-113 0 l0 523 q-42 -53 -76 -89 q-25 65 -64 122 q153 148 236 374 l110 -36 ZM499 565 l293 0 l0 134 l-293 0 l0 -134 ZM760 262 q95 -140 229 -218 q-52 -44 -84 -95 q-112 80 -203 222 l0 -258 l-120 0 l0 253 q-95 -137 -216 -215 q-33 53 -82 95 q141 73 241 216 l-205 0 l0 108 l262 0 l0 90 l-196 0 l0 343 l525 0 l0 -343 l-209 0 l0 -90 l258 0 l0 -108 l-200 0 Z" /><glyph glyph-name="" unicode="&#x5012;" d="M480 685 q-36 -84 -71 -140 l120 18 q-30 53 -36 62 l84 34 q74 -108 106 -197 l0 297 l101 0 l0 -594 l-101 0 l0 288 l-87 -41 q-9 30 -26 67 q-239 -42 -267 -59 q-7 33 -34 98 q21 8 41 42 q29 49 55 125 l-73 0 l0 99 l358 0 l0 -99 l-170 0 ZM300 816 q-30 -106 -74 -210 l0 -692 l-109 0 l0 480 q-20 -31 -45 -64 q-19 70 -55 131 q114 149 175 385 l108 -30 ZM510 126 q25 5 74 13 l74 13 l7 -96 l-398 -76 l-18 105 q60 8 151 23 l0 120 l-124 0 l0 98 l124 0 l0 93 l110 0 l0 -93 l138 0 l0 -98 l-138 0 l0 -102 ZM935 817 l0 -768 q0 -81 -49 -104 q-41 -20 -165 -20 q-10 49 -39 103 q54 -2 124 -2 q23 1 23 22 l0 769 l106 0 Z" /><glyph glyph-name="" unicode="&#x505a;" d="M322 812 q-31 -94 -80 -202 l0 -696 l-109 0 l0 500 q-29 -44 -61 -82 q-22 70 -58 129 q128 146 198 384 l110 -33 ZM606 36 q68 55 114 135 q-38 97 -59 212 q-18 -33 -35 -55 q-6 13 -20 35 l0 -327 ZM502 295 l-103 0 l0 -171 l103 0 l0 171 ZM736 563 q-1 -5 -4 -14 l-5 -15 q15 -127 47 -232 q32 106 46 261 l-84 0 ZM920 563 q-24 -250 -90 -395 q58 -103 142 -157 q-46 -46 -71 -94 q-79 59 -130 147 q-57 -84 -150 -147 q-21 33 -71 80 q25 15 40 27 l-191 0 l0 -71 l-102 0 l0 443 l100 0 l0 163 l-115 0 l0 107 l115 0 l0 168 l112 0 l0 -168 l104 0 l0 -107 l-104 0 l0 -163 l76 0 l-24 33 q91 130 128 417 l106 -18 q-17 -101 -31 -165 l204 0 l0 -100 l-48 0 Z" /><glyph glyph-name="" unicode="&#x515a;" d="M170 435 l-114 0 l0 236 l179 0 q-29 56 -79 115 l101 53 q67 -70 97 -134 l-57 -34 l140 0 l0 176 l122 0 l0 -176 l94 0 q62 100 83 164 l129 -35 q-45 -71 -86 -129 l171 0 l0 -236 l-120 0 l0 130 l-660 0 l0 -130 ZM339 303 l317 0 l0 99 l-317 0 l0 -99 ZM809 32 q25 0 32 20 q8 20 11 95 q38 -29 108 -46 q-10 -106 -40 -144 q-29 -36 -100 -36 l-133 0 q-87 0 -117 31 q-29 30 -29 114 l0 132 l-88 0 q-24 -111 -95 -173 q-83 -73 -256 -111 q-22 63 -66 109 q141 24 208 68 q58 39 80 107 l-105 0 l0 309 l564 0 l0 -309 l-123 0 l0 -130 q0 -24 8 -30 q7 -6 35 -6 l106 0 Z" /><glyph glyph-name="" unicode="&#x5168;" d="M744 487 q-134 88 -245 208 q-109 -120 -243 -208 l488 0 ZM562 382 l0 -115 l238 0 l0 -104 l-238 0 l0 -120 l366 0 l0 -107 l-850 0 l0 107 l359 0 l0 120 l-228 0 l0 104 l228 0 l0 115 l-242 0 l0 67 q-46 -27 -96 -51 q-23 45 -81 99 q313 129 461 359 l106 -49 l-18 -27 q163 -174 417 -285 q-59 -53 -80 -102 l-96 53 l0 -64 l-246 0 Z" /><glyph glyph-name="" unicode="&#x516c;" d="M690 832 q94 -195 279 -357 q-51 -37 -100 -102 q-177 181 -297 411 l118 48 ZM428 788 q-102 -254 -276 -415 q-59 52 -112 85 q169 130 258 367 l130 -37 ZM708 322 q152 -201 226 -345 l-119 -64 q-19 42 -62 114 q-558 -47 -601 -63 q-16 62 -46 125 q37 10 94 79 q124 127 237 383 l133 -57 q-106 -200 -259 -380 l373 25 q-54 81 -89 131 l113 52 Z" /><glyph glyph-name="" unicode="&#x5173;" d="M603 273 q118 -182 373 -237 q-46 -43 -84 -117 q-238 66 -367 262 q-100 -174 -405 -267 q-37 62 -88 107 q315 91 382 252 l-352 0 l0 118 l376 0 l0 136 l-310 0 l0 118 l166 0 q-30 73 -89 149 l100 50 q71 -81 105 -165 l-61 -34 l241 0 q56 90 100 201 l130 -43 q-45 -79 -98 -158 l166 0 l0 -118 l-310 0 l0 -136 l362 0 l0 -118 l-337 0 Z" /><glyph glyph-name="" unicode="&#x5176;" d="M340 237 l315 0 l0 73 l-315 0 l0 -73 ZM340 638 l0 -62 l315 0 l0 62 l-315 0 ZM340 410 l315 0 l0 67 l-315 0 l0 -67 ZM354 128 l95 -75 q-141 -81 -332 -139 q-39 55 -77 88 q181 49 305 126 l-292 0 l0 109 l169 0 l0 401 l-139 0 l0 109 l139 0 l0 97 l118 0 l0 -97 l315 0 l0 97 l121 0 l0 -97 l146 0 l0 -109 l-146 0 l0 -401 l171 0 l0 -109 l-593 0 ZM635 121 q190 -65 317 -130 l-114 -75 q-119 70 -288 132 l85 73 Z" /><glyph glyph-name="" unicode="&#x5177;" d="M307 234 l393 0 l0 58 l-393 0 l0 -58 ZM307 707 l0 -55 l393 0 l0 55 l-393 0 ZM307 431 l0 -55 l393 0 l0 55 l-393 0 ZM700 568 l-393 0 l0 -53 l393 0 l0 53 ZM701 127 q162 -69 265 -129 l-94 -84 q-127 81 -291 152 l57 61 l-300 0 l81 -57 q-125 -93 -302 -153 q-26 33 -85 85 q157 51 262 125 l-247 0 l0 107 l141 0 l0 567 l638 0 l0 -567 l131 0 l0 -107 l-256 0 Z" /><glyph glyph-name="" unicode="&#x51a0;" d="M119 609 l-47 0 l0 195 l858 0 l0 -195 l-82 0 l0 -73 l103 0 l0 -107 l-103 0 l0 -237 q0 -76 -45 -97 q-39 -20 -144 -18 q-6 44 -36 102 q41 -1 96 -1 q17 0 17 16 l0 235 l-227 0 l0 107 l227 0 l0 96 l71 0 l0 62 l-618 0 l0 -81 l286 0 l0 -109 l-356 0 l0 105 ZM618 402 q56 -74 81 -152 l-97 -43 q-20 78 -76 156 l92 39 ZM782 32 q51 0 67 23 q15 22 22 106 q44 -28 105 -40 q-14 -116 -50 -153 q-37 -39 -138 -39 l-261 0 q-118 0 -160 30 q-42 31 -42 117 l0 231 l-73 0 l0 -42 q0 -233 -147 -349 q-30 47 -81 82 q118 91 118 270 l0 39 l-94 0 l0 110 l465 0 l0 -110 l-77 0 l0 -230 q0 -29 17 -37 q18 -8 79 -8 l250 0 Z" /><glyph glyph-name="" unicode="&#x51c6;" d="M156 514 q-30 88 -120 245 l107 48 q92 -147 130 -237 l-117 -56 ZM37 10 q77 148 146 342 l111 -54 q-60 -172 -132 -340 l-125 52 ZM458 83 l180 0 l0 97 l-180 0 l0 -97 ZM638 572 l-180 0 l0 -95 l180 0 l0 95 ZM638 375 l-180 0 l0 -93 l180 0 l0 93 ZM967 -23 l-509 0 l0 -65 l-109 0 l0 520 q-38 -50 -71 -84 q-36 46 -83 87 q158 144 237 405 l110 -27 q-24 -70 -54 -138 l179 0 q-24 53 -68 123 l102 46 q53 -73 85 -142 l-52 -27 l217 0 l0 -103 l-197 0 l0 -95 l178 0 l0 -102 l-178 0 l0 -93 l176 0 l0 -102 l-176 0 l0 -97 l213 0 l0 -106 Z" /><glyph glyph-name="" unicode="&#x5219;" d="M186 186 l-110 0 l0 615 l465 0 l0 -610 l-115 0 l0 503 l-240 0 l0 -508 ZM379 179 q142 -109 191 -162 l-75 -84 q-45 55 -186 171 q-62 -125 -211 -192 q-25 51 -72 90 q136 60 186 161 q35 70 35 187 l0 287 l113 0 l0 -290 q0 -140 -46 -234 l65 66 ZM730 143 l-111 0 l0 612 l111 0 l0 -612 ZM924 835 l0 -771 q0 -94 -56 -123 q-51 -24 -198 -22 q-9 60 -42 123 q65 -3 151 -3 q27 1 27 26 l0 770 l118 0 Z" /><glyph glyph-name="" unicode="&#x521d;" d="M386 159 q-26 38 -85 114 l0 -359 l-123 0 l0 345 q-51 -54 -97 -90 q-22 72 -56 118 q147 98 244 285 l-216 0 l0 107 l171 0 q-20 37 -79 121 l94 52 q59 -75 90 -130 l-68 -43 l73 0 l16 4 l67 -47 q-45 -114 -116 -221 l0 -15 l17 -15 q45 51 75 97 l77 -65 q-22 -17 -52 -44 l-45 -41 q44 -40 80 -79 l-67 -94 ZM929 770 l-1 -58 q-12 -667 -55 -730 q-30 -46 -88 -57 q-41 -8 -145 -4 q-4 60 -35 114 q53 -5 124 -5 q24 0 37 19 q35 43 45 606 l-135 0 q-11 -280 -57 -440 q-56 -190 -183 -299 q-26 42 -91 93 q116 87 165 258 q39 139 45 388 l-126 0 l0 115 l500 0 Z" /><glyph glyph-name="" unicode="&#x5224;" d="M151 563 q-27 82 -86 192 l98 37 q58 -100 90 -185 l-102 -44 ZM580 764 q-39 -97 -99 -208 l57 0 l0 -113 l-161 0 l0 -7 q0 -69 -5 -118 l197 0 l0 -110 l-213 0 q-47 -206 -205 -303 q-34 47 -88 87 q124 76 166 216 l-186 0 l0 110 l209 0 q6 48 6 119 l0 6 l-182 0 l0 113 l182 0 l0 286 l119 0 l0 -286 l93 0 q-44 24 -91 42 q50 82 94 197 l107 -31 ZM722 164 l-115 0 l0 561 l115 0 l0 -561 ZM926 825 l0 -768 q0 -95 -55 -123 q-51 -24 -199 -22 q-11 63 -41 123 q65 -3 150 -3 q27 1 27 26 l0 767 l118 0 Z" /><glyph glyph-name="" unicode="&#x5230;" d="M382 112 q106 19 191 32 l6 -102 q-211 -41 -500 -92 l-26 110 q61 8 216 33 l0 136 l-182 0 l0 103 l182 0 l0 89 l113 0 l0 -89 l180 0 l0 -103 l-180 0 l0 -117 ZM413 555 q-27 41 -58 82 l84 49 l-120 0 q-38 -73 -87 -141 l181 10 ZM63 788 l520 0 l0 -102 l-141 0 q104 -130 139 -213 l-90 -59 q-8 20 -23 50 q-315 -26 -348 -40 q-12 40 -38 108 q21 6 46 42 q28 38 62 112 l-127 0 l0 102 ZM732 150 l-110 0 l0 604 l110 0 l0 -604 ZM929 836 l0 -774 q0 -87 -50 -112 q-46 -22 -173 -22 q-8 50 -40 114 q53 -2 124 -2 q23 0 23 23 l0 773 l116 0 Z" /><glyph glyph-name="" unicode="&#x5236;" d="M266 532 l0 75 l-101 0 q-13 -33 -34 -75 l135 0 ZM379 532 l219 0 l0 -107 l-219 0 l0 -73 l195 0 l0 -255 q0 -70 -36 -91 q-32 -20 -116 -18 q-5 47 -29 101 q42 -3 62 -1 q12 0 12 12 l0 146 l-88 0 l0 -332 l-113 0 l0 332 l-82 0 l0 -253 l-106 0 l0 359 l188 0 l0 73 l-227 0 l0 107 l75 0 q-44 22 -90 38 q61 93 92 259 l109 -23 q-8 -40 -23 -91 l64 0 l0 126 l113 0 l0 -126 l179 0 l0 -108 l-179 0 l0 -75 ZM754 202 l-111 0 l0 563 l111 0 l0 -563 ZM936 830 l0 -776 q0 -89 -49 -116 q-45 -23 -172 -23 q-6 53 -35 120 q51 -2 120 -2 q22 1 22 22 l0 775 l114 0 Z" /><glyph glyph-name="" unicode="&#x524d;" d="M382 208 l0 65 l-167 0 l0 -65 l167 0 ZM215 423 l0 -62 l167 0 l0 62 l-167 0 ZM497 31 q0 -74 -44 -96 q-36 -19 -139 -19 q-10 51 -38 101 q60 -3 90 -1 q16 0 16 16 l0 89 l-167 0 l0 -202 l-113 0 l0 604 l395 0 l0 -492 ZM782 541 l117 0 l0 -497 q0 -83 -51 -107 q-46 -22 -164 -20 q-11 56 -43 112 q82 -3 120 -1 q21 0 21 18 l0 495 ZM692 105 l-109 0 l0 408 l109 0 l0 -408 ZM952 699 l0 -107 l-905 0 l0 107 l213 0 q-30 57 -75 110 l113 39 q66 -70 93 -130 l-55 -19 l278 0 q49 75 82 151 l129 -38 q-29 -48 -76 -113 l203 0 Z" /><glyph glyph-name="" unicode="&#x52bf;" d="M850 759 q-13 -315 16 -315 q16 0 20 83 q33 -28 84 -42 q-7 -81 -32 -113 q-24 -29 -77 -29 q-75 0 -101 87 q-20 65 -19 230 l-85 0 q-8 -68 -25 -120 q72 -45 109 -74 l-62 -92 q-27 23 -93 70 q-38 -54 -105 -95 l40 0 l-7 -59 l360 0 q-1 -32 -4 -47 q-22 -242 -67 -285 q-33 -33 -99 -38 q-41 -5 -159 -1 q-3 56 -38 108 q73 -6 151 -6 q32 0 44 10 q27 23 42 154 l-257 0 q-75 -204 -385 -275 q-20 57 -62 103 q246 49 315 172 l-270 0 l0 105 l305 0 q1 2 9 59 l45 0 q-27 44 -57 70 q71 35 106 84 q-20 13 -74 45 l1 -30 l-120 -18 l0 -60 q0 -74 -44 -94 q-35 -17 -146 -17 q-6 45 -31 99 q40 -1 95 -1 q17 0 17 15 l0 42 l-129 -18 l-19 107 q57 5 148 17 l0 66 l-132 0 l0 104 l132 0 l0 86 l109 0 l0 -86 l111 0 l0 -104 l-111 0 l0 -52 l116 15 l2 -68 l58 79 q30 -14 59 -33 q8 32 12 63 l-113 0 l0 98 l121 0 l3 89 l110 0 l-3 -89 l186 1 Z" /><glyph glyph-name="" unicode="&#x5357;" d="M552 653 q-4 -27 -14 -75 l367 0 l0 -543 q0 -79 -55 -102 q-42 -17 -179 -17 q-7 44 -38 101 q81 -5 126 -2 q23 0 23 21 l0 433 l-191 0 l100 -20 q-25 -67 -42 -105 l73 0 l0 -92 l-169 0 l0 -65 l191 0 l0 -96 l-191 0 l0 -148 l-112 0 l0 148 l-185 0 l0 96 l185 0 l0 65 l-164 0 l0 92 l77 0 q-16 54 -39 101 l94 23 q32 -61 45 -109 l-53 -15 l146 0 q25 65 38 125 l-369 0 l0 -553 l-120 0 l0 662 l324 0 q8 48 11 75 l-373 0 l0 111 l385 0 l5 84 l132 -12 l-10 -72 l372 0 l0 -111 l-390 0 Z" /><glyph glyph-name="" unicode="&#x539f;" d="M231 514 q0 -392 -102 -579 q-45 37 -105 59 q90 162 90 520 l0 289 l834 0 l0 -108 l-717 0 l0 -181 ZM471 167 q-81 -128 -170 -217 q-53 40 -100 64 q93 80 157 189 l113 -36 ZM413 322 l344 0 l0 65 l-344 0 l0 -65 ZM413 470 l344 0 l0 64 l-344 0 l0 -64 ZM645 233 l0 -203 q0 -79 -48 -99 q-37 -17 -160 -17 q-6 47 -33 105 q44 -1 106 -1 q19 0 19 15 l0 200 l-232 0 l0 390 l177 0 q20 39 31 71 l143 -17 l-36 -54 l268 0 l0 -390 l-235 0 ZM787 204 q140 -159 170 -200 l-102 -58 q-33 51 -163 209 l95 49 Z" /><glyph glyph-name="" unicode="&#x53bf;" d="M691 74 q-64 62 -94 87 l76 34 l-218 0 q-75 -80 -145 -136 l381 15 ZM320 302 l380 0 l0 70 l-380 0 l0 -70 ZM320 702 l0 -70 l380 0 l0 70 l-380 0 ZM320 469 l380 0 l0 67 l-380 0 l0 -67 ZM949 195 l-238 0 q138 -116 224 -223 l-104 -54 q-16 22 -55 66 q-594 -33 -634 -47 q-22 71 -38 110 q29 5 70 38 q60 43 122 110 l-244 0 l0 107 l154 0 l0 499 l615 0 l0 -499 l128 0 l0 -107 Z" /><glyph glyph-name="" unicode="&#x53d1;" d="M783 644 q-31 46 -116 144 l92 55 q94 -101 120 -137 l-96 -62 ZM466 325 q52 -84 126 -146 q73 63 120 146 l-246 0 ZM881 406 q-58 -179 -186 -296 q122 -65 281 -91 q-42 -42 -74 -108 q-178 37 -308 122 q-121 -77 -293 -122 q-23 58 -62 105 q143 31 258 96 q-60 57 -108 136 q-103 -160 -280 -259 q-37 60 -87 96 q246 132 349 437 l-130 0 q-91 0 -105 -23 q-16 56 -39 108 q23 8 43 41 q43 69 69 177 l126 -20 q-25 -84 -70 -169 l138 0 q25 106 38 218 l133 -22 q-14 -105 -33 -196 l401 0 l0 -114 l-430 0 q-12 -39 -28 -82 l292 0 l22 5 l83 -39 Z" /><glyph glyph-name="" unicode="&#x53ec;" d="M288 232 l0 -175 l436 0 l0 175 l-436 0 ZM883 789 l-2 -47 q-21 -279 -62 -324 q-33 -34 -90 -40 q-59 -6 -148 -1 q-4 58 -37 110 q65 -6 130 -6 q28 0 40 12 q26 23 40 187 l-253 0 q-64 -239 -317 -340 l668 0 l0 -429 l-128 0 l0 39 l-436 0 l0 -39 l-122 0 l0 422 q-21 -8 -67 -22 q-22 60 -68 104 q276 69 336 265 l-267 0 l0 109 l783 0 Z" /><glyph glyph-name="" unicode="&#x5404;" d="M783 286 q-157 46 -276 114 q-123 -66 -286 -114 l562 0 ZM682 53 l0 125 l-362 0 l0 -125 l362 0 ZM354 649 q57 -59 153 -118 q97 59 153 118 l-306 0 ZM857 702 q-82 -130 -231 -232 q162 -72 354 -102 q-43 -44 -77 -111 q-28 5 -93 22 l0 -364 l-128 0 l0 33 l-362 0 l0 -37 l-121 0 l0 369 q-63 -18 -114 -29 q-23 63 -58 107 q196 36 368 114 q-64 48 -120 105 q-61 -56 -140 -106 q-40 51 -88 89 q211 110 318 297 l113 -39 q-33 -52 -44 -67 l317 0 l20 6 l86 -55 Z" /><glyph glyph-name="" unicode="&#x5408;" d="M309 226 l0 -158 l396 0 l0 158 l-396 0 ZM187 331 l645 0 l0 -413 l-127 0 l0 40 l-396 0 l0 -44 l-122 0 l0 417 ZM683 526 q-94 64 -174 143 q-73 -76 -165 -143 l339 0 ZM615 797 q-22 -30 -33 -44 q163 -151 396 -236 q-57 -52 -82 -109 q-92 44 -144 74 l0 -65 l-500 0 l0 49 q-71 -44 -134 -73 q-34 61 -87 109 q331 131 478 350 l106 -55 Z" /><glyph glyph-name="" unicode="&#x540e;" d="M438 239 l0 -170 l334 0 l0 170 l-334 0 ZM317 349 l581 0 l0 -433 l-126 0 l0 42 l-334 0 l0 -45 l-121 0 l0 436 ZM965 573 l0 -114 l-700 0 q-7 -375 -142 -549 q-46 53 -99 82 q117 152 117 497 l0 274 q432 22 665 80 l97 -97 q-246 -60 -638 -83 l0 -90 l700 0 Z" /><glyph glyph-name="" unicode="&#x5411;" d="M412 363 l0 -133 l174 0 l0 133 l-174 0 ZM412 126 l0 -70 l-107 0 l0 411 l390 0 l0 -341 l-283 0 ZM915 52 q0 -93 -56 -118 q-46 -21 -196 -21 q-7 60 -39 120 q79 -5 146 -2 q25 0 25 23 l0 510 l-588 0 l0 -650 l-119 0 l0 766 l276 0 q34 87 53 167 l151 -21 q-32 -77 -70 -146 l417 0 l0 -628 Z" /><glyph glyph-name="" unicode="&#x542b;" d="M708 163 l-428 0 l0 -108 l428 0 l0 108 ZM813 436 q-71 -95 -136 -171 l157 0 l0 -350 l-126 0 l0 38 l-428 0 l0 -40 l-120 0 l0 352 l370 0 l85 102 l-427 0 l0 104 l318 0 q-43 48 -109 98 l86 59 q84 -59 125 -107 l-69 -50 l167 0 l19 6 l88 -41 ZM599 800 q-9 -13 -25 -32 q145 -142 406 -202 q-48 -44 -80 -105 q-233 69 -394 235 q-157 -150 -404 -243 q-25 52 -81 108 q328 99 468 293 l110 -54 Z" /><glyph glyph-name="" unicode="&#x5468;" d="M449 454 l0 64 l-149 0 l0 90 l149 0 l0 66 l113 0 l0 -66 l157 0 l0 -90 l-157 0 l0 -64 l177 0 l0 -93 l-459 0 l0 93 l169 0 ZM424 214 l0 -92 l167 0 l0 92 l-167 0 ZM424 33 l0 -54 l-108 0 l0 325 l385 0 l0 -271 l-277 0 ZM900 45 q0 -84 -52 -111 q-42 -20 -182 -20 q-7 57 -36 111 q34 -2 127 -2 q24 0 24 23 l0 643 l-534 0 l0 -236 q0 -378 -125 -544 q-45 50 -96 75 q103 142 103 469 l0 346 l771 0 l0 -754 Z" /><glyph glyph-name="" unicode="&#x548c;" d="M345 423 q64 -64 152 -172 l-68 -99 q-31 56 -84 131 l0 -369 l-120 0 l0 356 q-67 -158 -140 -239 q-13 42 -60 112 q105 111 171 297 l-149 0 l0 110 l178 0 l0 130 q-72 -12 -143 -21 q-9 46 -32 93 q230 32 367 86 l77 -93 q-60 -22 -149 -42 l0 -153 l145 0 l0 -110 l-145 0 l0 -17 ZM793 154 l0 485 l-160 0 l0 -485 l160 0 ZM916 753 l0 -785 l-123 0 l0 72 l-160 0 l0 -79 l-117 0 l0 792 l400 0 Z" /><glyph glyph-name="" unicode="&#x56ed;" d="M729 535 l-458 0 l0 93 l458 0 l0 -93 ZM676 195 q12 0 15 16 q5 17 6 75 q33 -26 90 -38 q-7 -85 -30 -116 q-21 -30 -69 -30 l-68 0 q-61 0 -82 26 q-19 25 -19 95 l0 145 l-67 0 q-10 -115 -48 -178 q-45 -73 -147 -112 q-19 52 -62 87 q80 28 114 77 q29 43 37 126 l-126 0 l0 97 l554 0 l0 -97 l-152 0 l0 -144 q0 -19 3 -24 q2 -5 13 -5 l38 0 ZM804 66 l0 627 l-611 0 l0 -627 l611 0 ZM928 804 l0 -890 l-124 0 l0 41 l-611 0 l0 -41 l-118 0 l0 890 l853 0 Z" /><glyph glyph-name="" unicode="&#x5730;" d="M264 268 l92 39 l27 -105 q-97 -49 -312 -149 l-48 120 q51 19 130 50 l0 281 l-117 0 l0 113 l117 0 l0 217 l111 0 l0 -217 l101 0 l0 -113 l-101 0 l0 -236 ZM798 38 q40 0 54 24 q13 23 20 101 q45 -32 104 -43 q-12 -107 -46 -146 q-36 -42 -122 -42 l-213 0 q-102 0 -138 36 q-36 36 -36 139 l0 257 l-54 -23 l-44 106 l98 41 l0 263 l114 0 l0 -214 l83 35 l0 276 l111 0 l0 -228 l79 34 l42 28 l83 -29 l-4 -20 q0 -294 -7 -351 q-4 -63 -51 -83 q-31 -14 -104 -14 q-6 64 -25 100 q17 -2 48 -2 q17 0 22 22 q3 24 3 231 l-86 -38 l0 -353 l-111 0 l0 305 l-83 -36 l0 -308 q0 -44 12 -56 q12 -12 58 -12 l193 0 Z" /><glyph glyph-name="" unicode="&#x57df;" d="M341 184 q-142 -84 -267 -151 l-45 120 l99 45 l0 299 l-90 0 l0 113 l90 0 l0 224 l111 0 l0 -224 l75 0 l0 -114 l-75 0 l0 -241 l68 34 l34 -105 ZM942 516 q-47 -200 -133 -348 q27 -143 64 -143 q21 0 25 126 q32 -41 80 -66 q-13 -99 -39 -135 q-25 -36 -82 -36 q-79 0 -129 138 q-61 -76 -140 -132 q-30 38 -85 75 q67 42 128 106 q-268 -71 -304 -80 l-28 111 q64 12 344 74 l9 -79 q24 29 42 55 q-32 167 -42 420 l-323 0 l0 108 l319 0 q-2 92 -2 137 l113 0 q-1 -68 0 -137 l106 0 q-41 42 -87 79 l67 58 q77 -55 110 -97 l-43 -40 l44 0 l0 -108 l-194 0 q6 -146 19 -252 q30 76 55 187 l106 -21 ZM522 444 l-77 0 l0 -122 l77 0 l0 122 ZM615 535 l0 -304 l-257 0 l0 304 l257 0 Z" /><glyph glyph-name="" unicode="&#x57f9;" d="M246 229 q58 21 100 37 l22 -109 q-191 -82 -302 -127 l-37 122 q45 14 112 38 l0 307 l-102 0 l0 113 l102 0 l0 223 l105 0 l0 -223 l98 0 l0 -113 l-98 0 l0 -268 ZM527 189 l0 -137 l248 0 l0 137 l-248 0 ZM420 293 l469 0 l0 -376 l-114 0 l0 31 l-248 0 l0 -35 l-107 0 l0 380 ZM538 632 q33 -71 46 -141 l-86 -28 l208 0 q34 79 55 169 l-223 0 ZM966 463 l0 -106 l-624 0 l0 106 l140 0 q-9 62 -41 143 l86 26 l-148 0 l0 105 l220 0 q-8 51 -22 97 l106 17 q21 -56 31 -114 l218 0 l0 -105 l-149 0 l89 -21 q-50 -129 -59 -148 l153 0 Z" /><glyph glyph-name="" unicode="&#x5907;" d="M342 660 q56 -48 153 -90 q84 41 144 94 l-293 0 l-4 -4 ZM274 253 l0 -54 l161 0 l0 54 l-161 0 ZM708 253 l-150 0 l0 -54 l150 0 l0 54 ZM708 42 l0 65 l-150 0 l0 -65 l150 0 ZM435 42 l0 65 l-161 0 l0 -65 l161 0 ZM834 726 q-71 -117 -203 -204 q159 -45 353 -62 q-44 -48 -73 -111 q-231 28 -414 102 q-137 -61 -324 -97 l666 0 l0 -441 l-131 0 l0 28 l-434 0 l0 -29 l-124 0 l0 438 l-79 -13 q-18 65 -52 111 q188 20 343 69 q-67 43 -108 77 q-54 -37 -114 -67 q-35 57 -79 88 q206 88 299 236 l129 -26 q-34 -46 -44 -58 l291 0 l20 5 l78 -46 Z" /><glyph glyph-name="" unicode="&#x590d;" d="M357 181 q52 -42 145 -79 q96 35 155 79 l-300 0 ZM319 387 l409 0 l0 42 l-409 0 l0 -42 ZM319 502 l409 0 l0 41 l-409 0 l0 -41 ZM845 226 q-70 -100 -193 -165 q142 -30 320 -36 q-35 -38 -64 -102 q-234 16 -397 76 q-183 -63 -441 -86 q-14 61 -43 104 q193 11 348 47 q-61 38 -103 82 q-52 -38 -107 -70 q-36 43 -82 75 q138 62 223 158 l-107 0 l0 285 q-44 -44 -83 -72 q-32 46 -75 88 q141 95 206 237 l108 -33 l-28 -53 l593 0 l0 -96 l-660 0 q-9 -14 -35 -44 l628 0 l0 -312 l-437 0 l17 -6 q-9 -12 -29 -36 l349 0 l19 5 l73 -46 Z" /><glyph glyph-name="" unicode="&#x5916;" d="M463 706 l85 -25 q-67 -577 -421 -757 q-39 57 -99 100 q170 78 265 234 q-43 39 -129 108 l72 81 q76 -56 109 -83 q40 97 61 225 l-151 0 q-55 -154 -130 -254 q-33 31 -100 76 q124 142 177 437 l120 -21 q-13 -60 -30 -125 l148 0 l23 4 ZM875 239 q-37 55 -161 187 l0 -513 l-126 0 l0 934 l126 0 l0 -332 l44 32 q175 -173 218 -227 l-101 -81 Z" /><glyph glyph-name="" unicode="&#x2f24;&#x5927;" d="M592 456 q108 -320 374 -428 q-48 -40 -88 -112 q-251 118 -375 424 q-94 -290 -374 -425 q-37 64 -89 101 q293 130 363 440 l-344 0 l0 123 l364 0 q8 72 10 267 l130 0 q-2 -175 -12 -267 l393 0 l0 -123 l-352 0 Z" /><glyph glyph-name="" unicode="&#x597d;" d="M220 540 q-18 -95 -45 -194 q14 -10 41 -32 q27 -21 40 -32 q47 111 67 258 l-103 0 ZM446 636 q-22 -264 -98 -431 q72 -64 110 -114 l-78 -102 q-31 45 -92 106 q-77 -111 -196 -181 q-35 60 -74 94 q110 55 184 168 q-92 80 -156 127 q32 100 60 237 l-71 0 l0 109 l92 0 q17 99 27 196 l118 -9 q-13 -92 -30 -187 l111 0 l20 3 l73 -16 ZM967 323 l-200 0 l0 -281 q0 -85 -55 -110 q-49 -21 -175 -19 q-10 57 -41 113 q51 -1 125 -1 q22 0 22 19 l0 279 l-211 0 l0 113 l211 0 l0 95 q60 53 122 147 l-293 0 l0 108 l371 0 l28 6 l80 -58 q-83 -129 -184 -223 l0 -75 l200 0 l0 -113 Z" /><glyph glyph-name="" unicode="&#x5b63;" d="M439 408 l0 110 q-69 -70 -175 -134 l405 0 l25 6 l72 -63 q-89 -63 -206 -115 l0 -7 l383 0 l0 -102 l-383 0 l0 -72 q0 -79 -59 -100 q-42 -15 -191 -15 q-10 49 -41 103 q99 -5 149 -2 q24 1 24 18 l0 68 l-385 0 l0 102 l385 0 l0 51 q49 18 82 36 l-291 0 l0 74 q-63 -34 -130 -58 q-34 55 -73 90 q164 48 292 147 l-262 0 l0 100 l379 0 l0 62 q-116 -8 -293 -12 q-3 42 -27 94 q429 9 633 57 l98 -84 q-112 -26 -294 -45 l0 -72 l387 0 l0 -100 l-267 0 q127 -95 294 -138 q-43 -39 -74 -94 q-200 66 -340 209 l0 -114 l-117 0 Z" /><glyph glyph-name="" unicode="&#x5b66;" d="M181 470 l-112 0 l0 219 l153 0 q-23 43 -70 104 l101 45 q67 -74 92 -131 l-38 -18 l168 0 q-21 59 -65 128 l105 39 q56 -73 79 -144 l-59 -23 l130 0 q54 80 86 151 l124 -37 q-30 -43 -85 -114 l146 0 l0 -219 l-117 0 l0 114 l-638 0 l0 -114 ZM947 174 l-388 0 l0 -128 q0 -87 -62 -109 q-50 -19 -195 -19 q-12 51 -49 115 q102 -5 158 -2 q26 0 26 18 l0 125 l-381 0 l0 110 l381 0 l0 62 q51 20 113 58 l-315 0 l0 103 l451 0 l24 6 l76 -59 q-95 -87 -227 -151 l0 -19 l388 0 l0 -110 Z" /><glyph glyph-name="" unicode="&#x5b89;" d="M201 516 l-121 0 l0 223 l348 0 q-11 26 -38 82 l125 29 q29 -51 55 -111 l353 0 l0 -223 l-127 0 l0 113 l-595 0 l0 -113 ZM416 348 q-35 -57 -55 -86 q65 -23 164 -60 q65 63 101 146 l-210 0 ZM764 348 q-44 -112 -120 -194 q188 -79 293 -143 l-97 -101 q-106 70 -297 156 q-151 -104 -408 -153 q-27 60 -71 110 q215 30 347 99 q-135 55 -238 88 l2 2 q45 58 93 136 l-207 0 l0 112 l271 0 q42 81 68 147 l133 -26 q-21 -53 -56 -121 l465 0 l0 -112 l-178 0 Z" /><glyph glyph-name="" unicode="&#x5b9a;" d="M190 491 l-117 0 l0 250 l371 0 q-16 46 -35 83 l120 33 q36 -62 52 -116 l347 0 l0 -250 l-123 0 l0 138 l-615 0 l0 -138 ZM562 53 q52 -7 118 -7 q218 0 286 2 q-31 -48 -43 -121 l-249 0 q-154 0 -243 34 q-108 40 -172 142 q-51 -121 -134 -192 q-42 46 -97 79 q146 110 176 390 l121 -11 q-6 -49 -21 -121 q41 -112 134 -160 l0 339 l-213 0 l0 114 l550 0 l0 -114 l-213 0 l0 -118 l274 0 l0 -112 l-274 0 l0 -144 Z" /><glyph glyph-name="" unicode="&#x5b9e;" d="M198 525 l-119 0 l0 228 l366 0 q-17 40 -34 69 l119 37 q37 -59 57 -106 l337 0 l0 -228 l-125 0 l0 117 l-601 0 l0 -117 ZM376 433 q-44 53 -142 111 l69 77 q100 -49 148 -103 l-75 -85 ZM200 475 q103 -50 151 -99 l-71 -88 q-47 52 -148 107 l68 80 ZM538 175 q-94 -188 -394 -260 q-18 54 -66 102 q228 49 315 158 l-323 0 l0 100 l376 0 q30 86 37 324 l126 0 q-7 -220 -35 -324 l362 0 l0 -100 l-398 0 ZM585 155 q205 -57 352 -142 l-73 -95 q-126 86 -334 150 l55 87 Z" /><glyph glyph-name="" unicode="&#x5bfc;" d="M249 719 l0 -66 l460 0 l0 66 l-460 0 ZM378 389 q-147 0 -199 28 q-55 30 -55 114 l0 290 l702 0 l0 -270 l-577 0 l0 -18 q0 -31 24 -39 q23 -9 104 -9 l340 0 q58 0 77 11 q19 11 26 50 q42 -23 112 -33 q-13 -75 -55 -100 q-40 -24 -149 -24 l-350 0 ZM945 200 l-205 0 l0 -165 q0 -85 -62 -105 q-51 -16 -207 -16 q-9 49 -40 107 q61 -3 159 -3 q27 1 27 21 l0 161 l-304 0 q98 -74 136 -127 l-86 -81 q-51 79 -172 164 l48 44 l-180 0 l0 111 l558 0 l0 56 l123 0 l0 -56 l205 0 l0 -111 Z" /><glyph glyph-name="" unicode="&#x5c06;" d="M206 846 l115 0 l0 -932 l-115 0 l0 316 q-92 -78 -116 -97 l-58 103 q69 47 174 131 l0 161 l-52 -43 q-37 66 -124 161 l82 65 q58 -60 94 -105 l0 240 ZM958 255 l-108 0 l0 -215 q0 -83 -52 -105 q-45 -19 -175 -19 q-6 49 -37 111 q52 -2 125 -2 q21 0 21 17 l0 213 l-226 0 q87 -96 121 -168 l-104 -57 q-32 78 -116 177 l93 48 l-147 0 l0 109 l54 0 q-26 56 -56 89 q114 22 211 63 q-32 42 -71 75 l88 50 q49 -38 78 -77 q81 51 130 111 l-202 0 q-78 -62 -164 -103 q-28 36 -79 78 q169 67 261 197 l123 -31 q-21 -28 -40 -47 l171 0 l20 4 l78 -40 q-126 -274 -529 -369 l306 0 l0 97 l118 0 l0 -97 l108 0 l0 -109 Z" /><glyph glyph-name="" unicode="&#x2f29;&#x5c0f;" d="M568 833 l0 -771 q0 -99 -61 -125 q-57 -23 -212 -23 q-12 60 -47 124 q102 -5 161 -2 q30 0 30 26 l0 771 l129 0 ZM794 616 q152 -266 188 -448 l-130 -51 q-31 189 -175 455 l117 44 ZM313 582 q-71 -313 -171 -445 q-45 30 -116 62 q107 135 151 406 l136 -23 Z" /><glyph glyph-name="" unicode="&#x5c55;" d="M659 200 q20 -34 55 -67 q52 31 100 67 l-155 0 ZM507 300 l149 0 l0 69 l-149 0 l0 -69 ZM507 468 l149 0 l0 69 l-149 0 l0 -69 ZM252 638 l529 0 l0 66 l-529 0 l0 -66 ZM920 151 q-67 -45 -129 -77 q78 -44 175 -61 q-43 -44 -69 -99 q-248 61 -350 286 l-102 0 l0 -156 l168 32 q-10 -48 -10 -98 q-254 -55 -276 -70 l0 -1 q-10 46 -43 96 q51 34 51 93 l0 104 l-83 0 l0 100 l146 0 l0 69 l-125 0 l0 99 l125 0 l0 69 l-146 0 l0 -29 q0 -409 -121 -598 q-52 41 -106 61 q107 166 107 537 l0 296 l769 0 l0 -267 l-135 0 l0 -69 l144 0 l0 -99 l-144 0 l0 -69 l187 0 l0 -100 l-105 0 l72 -49 Z" /><glyph glyph-name="" unicode="&#x2f2f;&#x5de5;" d="M957 102 l0 -120 l-909 0 l0 120 l381 0 l0 517 l-327 0 l0 124 l799 0 l0 -124 l-336 0 l0 -517 l392 0 Z" /><glyph glyph-name="" unicode="&#x5e02;" d="M559 596 l0 -112 l322 0 l0 -337 q0 -87 -54 -110 q-43 -20 -176 -20 q-8 57 -40 117 q81 -5 124 -2 q22 0 22 17 l0 219 l-198 0 l0 -450 l-124 0 l0 450 l-185 0 l0 -351 l-120 0 l0 467 l305 0 l0 112 l-389 0 l0 116 l401 0 q-24 58 -51 110 l118 37 q59 -109 75 -147 l369 0 l0 -116 l-399 0 Z" /><glyph glyph-name="" unicode="&#x5e03;" d="M412 591 q-41 -90 -81 -151 l161 0 l0 115 l120 0 l0 -115 l287 0 l0 -310 q0 -80 -51 -103 q-40 -18 -167 -18 q-7 49 -37 108 q46 -2 113 -2 q21 0 21 17 l0 195 l-166 0 l0 -413 l-120 0 l0 413 l-158 0 l0 -325 l-119 0 l0 289 q-60 -63 -127 -110 q-26 53 -67 105 q154 100 258 305 l-223 0 l0 114 l274 0 q29 74 45 145 l123 -28 q-18 -58 -39 -117 l488 0 l0 -114 l-535 0 Z" /><glyph glyph-name="" unicode="&#x5e08;" d="M181 245 l-106 0 l0 487 l106 0 l0 -487 ZM240 845 l109 0 l0 -397 q0 -180 -29 -289 q-40 -150 -145 -244 q-41 49 -90 79 q95 80 130 207 q25 92 25 248 l0 396 ZM719 693 l0 -89 l210 0 l0 -432 q0 -70 -38 -93 q-31 -19 -118 -19 q-7 54 -31 102 q27 -1 64 -1 q13 0 13 14 l0 322 l-100 0 l0 -582 l-111 0 l0 582 l-91 0 l0 -439 l-107 0 l0 546 l198 0 l0 89 l-225 0 l0 108 l570 0 l0 -108 l-234 0 Z" /><glyph glyph-name="" unicode="&#x5e74;&#xf98e;" d="M493 240 l0 152 l-173 0 l0 -152 l173 0 ZM958 126 l-342 0 l0 -214 l-123 0 l0 214 l-450 0 l0 114 l158 0 l0 262 l292 0 l0 120 l-214 0 q-63 -109 -136 -182 q-59 51 -103 77 q138 116 210 333 l121 -31 q-13 -40 -33 -82 l565 0 l0 -115 l-287 0 l0 -120 l264 0 l0 -110 l-264 0 l0 -152 l342 0 l0 -114 Z" /><glyph glyph-name="" unicode="&#x5e94;" d="M232 463 q0 -379 -97 -560 q-47 45 -105 69 q81 152 81 491 l0 269 l382 0 q-14 45 -38 99 l120 28 q31 -68 52 -127 l323 0 l0 -113 l-718 0 l0 -156 ZM538 208 q-15 118 -80 343 l108 28 q65 -211 87 -340 l-115 -31 ZM365 530 q78 -198 113 -339 l-112 -47 q-27 131 -106 345 l105 41 ZM961 64 l0 -112 l-744 0 l0 112 l370 0 q142 218 206 519 l128 -42 q-77 -259 -208 -477 l248 0 Z" /><glyph glyph-name="" unicode="&#x5e9c;" d="M228 445 q0 -368 -95 -539 q-49 49 -105 68 q79 145 79 470 l0 306 l374 0 q-6 18 -31 78 l120 31 q29 -54 49 -109 l337 0 l0 -110 l-728 0 l0 -195 ZM512 599 q-28 -80 -71 -161 l0 -523 l-112 0 l0 360 q-17 -20 -52 -53 q-18 57 -49 112 q117 111 167 297 l117 -32 ZM592 330 q66 -105 99 -184 l-100 -47 q-28 78 -95 192 l96 39 ZM957 374 l-94 0 l0 -328 q0 -87 -52 -112 q-43 -21 -174 -21 q-9 58 -37 117 q50 -2 122 -2 q22 1 22 19 l0 327 l-261 0 l0 109 l261 0 l0 132 l119 0 l0 -132 l94 0 l0 -109 Z" /><glyph glyph-name="" unicode="&#x5f00;" d="M625 433 l0 244 l-229 0 l0 -244 l229 0 ZM955 319 l-205 0 l0 -407 l-125 0 l0 407 l-236 0 q-33 -275 -248 -410 q-37 49 -96 89 q185 112 219 321 l-216 0 l0 114 l226 0 l0 244 l-193 0 l0 112 l844 0 l0 -112 l-175 0 l0 -244 l205 0 l0 -114 Z" /><glyph glyph-name="" unicode="&#x5f0f;" d="M361 112 q97 17 186 35 l9 -106 q-180 -39 -469 -100 l-33 120 l189 30 l0 241 l-151 0 l0 115 l429 0 l0 -115 l-160 0 l0 -220 ZM677 561 q16 -225 58 -371 q44 -152 97 -152 q31 0 38 180 q48 -50 104 -70 q-13 -138 -48 -188 q-32 -47 -105 -47 q-226 0 -270 648 l-497 0 l0 116 l491 0 q-3 81 -3 165 l128 0 q-2 -93 1 -165 l158 0 q-34 43 -117 105 l79 65 q92 -63 131 -111 l-68 -59 l94 0 l0 -116 l-271 0 Z" /><glyph glyph-name="" unicode="&#x5f62;" d="M934 787 q-109 -143 -287 -246 q-33 48 -84 84 q172 86 258 208 l113 -46 ZM950 514 q-111 -151 -290 -260 q-35 46 -83 83 q179 96 264 221 l109 -44 ZM376 463 l0 215 l-116 0 l0 -215 l116 0 ZM492 353 l0 -440 l-116 0 l0 440 l-117 0 q-9 -301 -150 -448 q-36 48 -87 82 q116 123 127 366 l-115 0 l0 110 l116 0 l0 215 l-98 0 l0 111 l523 0 l0 -111 l-83 0 l0 -215 l96 0 l0 -110 l-96 0 ZM971 250 q-122 -211 -362 -336 q-35 57 -83 97 q233 103 332 283 l113 -44 Z" /><glyph glyph-name="" unicode="&#x5f97;" d="M780 735 l-260 0 l0 -50 l260 0 l0 50 ZM780 607 l-260 0 l0 -52 l260 0 l0 52 ZM900 472 l-495 0 l0 346 l495 0 l0 -346 ZM346 800 q-109 -152 -262 -251 q-22 50 -59 101 q139 85 208 196 l113 -46 ZM363 583 q-32 -56 -87 -126 l0 -543 l-115 0 l0 415 q-51 -51 -90 -81 q-24 70 -57 123 q158 110 245 257 l104 -45 ZM954 173 l-137 0 l0 -142 q0 -79 -49 -100 q-37 -17 -155 -17 q-7 47 -37 106 q42 -2 102 -2 q18 1 18 16 l0 139 l-210 0 q77 -73 114 -125 l-89 -63 q-33 57 -115 139 l74 49 l-140 0 l0 101 l366 0 l0 57 l-342 0 l0 97 l579 0 l0 -97 l-116 0 l0 -57 l136 0 l1 -101 Z" /><glyph glyph-name="" unicode="&#x6025;" d="M332 682 q-25 -28 -73 -68 l261 0 q21 25 50 68 l-238 0 ZM172 550 l-44 -27 q-32 53 -82 88 q184 92 270 241 l128 -26 l-33 -50 l227 0 l17 5 l83 -52 q-34 -57 -80 -115 l171 0 l0 -379 l-314 0 q80 -67 115 -124 l-95 -64 q-34 61 -129 146 l64 42 l-315 0 l0 95 l556 0 l0 52 l-521 0 l0 88 l521 0 l0 49 l-539 0 l0 31 ZM32 -1 q57 83 96 193 l105 -47 q-54 -136 -90 -200 l-111 54 ZM613 33 q34 0 45 16 q9 16 14 77 q40 -27 108 -40 q-10 -94 -43 -126 q-31 -31 -114 -31 l-193 0 q-104 0 -141 29 q-36 28 -36 105 l0 121 l121 0 l0 -120 q0 -20 12 -26 q12 -5 55 -5 l172 0 ZM858 216 q83 -129 107 -216 l-114 -45 q-20 88 -98 220 l105 41 Z" /><glyph glyph-name="" unicode="&#x6089;" d="M31 14 q96 68 133 207 l106 -37 q-47 -165 -140 -238 l-99 68 ZM441 703 q-90 -6 -139 -8 q48 -62 65 -111 l-9 -4 l83 0 l0 123 ZM608 32 q29 0 38 17 q8 17 12 81 q39 -29 106 -42 q-10 -97 -41 -130 q-29 -32 -104 -32 l-163 0 q-94 0 -127 29 q-31 28 -31 108 l0 154 l107 0 l-37 22 l73 65 l0 150 q-135 -151 -333 -219 q-37 59 -78 97 q163 45 283 140 l-254 0 l0 108 l190 0 q-23 49 -53 87 l58 26 q-42 -2 -126 -4 q-3 44 -26 94 q447 11 669 63 l99 -84 q-128 -30 -313 -49 l0 -133 l68 0 q48 72 73 139 l121 -38 q-40 -56 -76 -101 l201 0 l0 -108 l-261 0 q119 -91 288 -133 q-38 -35 -77 -98 q-200 63 -337 214 l0 -172 l-65 0 q90 -54 131 -98 l-83 -77 q-38 45 -124 102 l0 -146 q0 -21 10 -27 q9 -5 44 -5 l138 0 ZM792 237 q136 -125 180 -227 l-108 -58 q-41 106 -170 232 l98 53 Z" /><glyph glyph-name="" unicode="&#x60c5;" d="M20 389 q31 101 41 261 l84 -11 q-4 -149 -39 -279 l-86 29 ZM785 144 l0 46 l-299 0 l0 -46 l299 0 ZM486 321 l0 -47 l299 0 l0 47 l-299 0 ZM897 27 q0 -76 -46 -96 q-35 -17 -154 -17 q-7 49 -32 101 q27 -2 101 -2 q19 0 19 16 l0 33 l-299 0 l0 -150 l-110 0 l0 496 l521 0 l0 -381 ZM964 531 l0 -85 l-655 0 l0 85 l265 0 l0 43 l-207 0 l2 -5 l-78 -38 q-12 48 -37 110 l0 -727 l-107 0 l0 933 l107 0 l0 -160 l57 24 q35 -72 56 -136 l0 79 l207 0 l0 40 l-234 0 l0 85 l234 0 l0 68 l118 0 l0 -68 l242 0 l0 -85 l-242 0 l0 -40 l215 0 l0 -80 l-215 0 l0 -43 l272 0 Z" /><glyph glyph-name="" unicode="&#x6210;" d="M904 499 q-61 -193 -172 -343 q46 -114 93 -114 q34 0 41 175 q41 -43 101 -67 q-14 -135 -48 -184 q-32 -45 -104 -45 q-98 0 -169 132 q-76 -79 -169 -136 q-36 52 -86 98 q116 63 204 162 q-48 159 -69 403 l-290 0 l0 -107 l247 0 l-1 -45 q-4 -293 -32 -328 q-24 -32 -69 -40 q-31 -5 -115 -3 q-4 62 -33 111 q48 -4 86 -4 q20 0 30 12 q13 18 17 188 l-130 0 q-9 -317 -107 -463 q-50 54 -101 81 q83 131 83 424 l0 292 l408 0 q-4 98 -4 148 l125 0 q-1 -66 2 -148 l153 0 q-45 36 -128 87 l72 71 q108 -55 163 -107 l-48 -51 l104 0 l0 -118 l-309 0 q13 -149 40 -274 q62 106 96 222 l119 -29 Z" /><glyph glyph-name="" unicode="&#x6307;" d="M398 318 l-118 -33 l0 -243 q0 -81 -44 -106 q-38 -21 -151 -21 q-5 46 -33 109 q39 -2 92 -2 q19 1 19 19 l0 213 l-111 -28 l-28 113 q69 15 139 32 l0 178 l-124 0 l0 110 l124 0 l0 187 l117 0 l0 -187 l102 0 l0 -110 l-102 0 l0 -150 l104 27 l14 -108 ZM545 271 l0 -61 l255 0 l0 61 l-255 0 ZM800 51 l0 66 l-255 0 l0 -66 l255 0 ZM432 369 l486 0 l0 -452 l-118 0 l0 39 l-255 0 l0 -43 l-113 0 l0 456 ZM794 533 q37 0 49 20 q11 20 16 95 q43 -31 108 -43 q-11 -106 -45 -142 q-33 -37 -119 -37 l-194 0 q-103 0 -140 31 q-35 31 -35 118 l0 271 l119 0 l0 -131 q168 42 266 88 l88 -86 q-138 -55 -354 -99 l0 -42 q0 -28 12 -36 q12 -7 55 -7 l174 0 Z" /><glyph glyph-name="" unicode="&#x6309;" d="M496 519 l-111 0 l0 212 l220 0 q-10 52 -27 105 l120 17 q22 -69 34 -122 l221 0 l0 -211 l-116 0 l0 107 l-341 0 l0 -108 ZM610 355 q-8 -20 -50 -118 q38 -18 116 -60 q54 72 73 178 l-139 0 ZM881 -89 q-60 48 -184 125 q-102 -81 -290 -126 q-14 50 -56 102 q151 27 240 86 q-58 33 -186 100 q32 55 76 157 l-110 0 l10 -69 l-109 -33 l0 -215 q0 -80 -44 -103 q-38 -22 -149 -22 q-7 51 -34 108 q39 -2 93 -2 q19 0 19 19 l0 182 l-109 -31 l-25 115 q57 12 134 32 l0 212 l-119 0 l0 111 l119 0 l0 187 l115 0 l0 -187 l94 0 l0 -111 l-94 0 l0 -181 l78 22 l0 72 l173 0 q23 63 42 136 l122 -17 q-17 -61 -37 -119 l315 0 l0 -106 l-87 0 q-31 -142 -98 -234 q120 -68 187 -118 l-86 -92 Z" /><glyph glyph-name="" unicode="&#x6325;" d="M456 590 l-110 0 l0 213 l589 0 l0 -213 l-115 0 l0 106 l-364 0 l0 -106 ZM343 313 l-98 -30 l0 -232 q0 -79 -39 -105 q-35 -24 -128 -24 q-5 53 -31 114 q51 -2 70 0 q15 0 15 15 l0 199 l-80 -23 l-26 114 l106 26 l0 181 l-91 0 l0 110 l91 0 l0 189 l113 0 l0 -189 l78 0 l0 -110 l-78 0 l0 -151 l83 22 l15 -106 ZM963 79 l-225 0 l0 -163 l-118 0 l0 163 l-296 0 l0 107 l296 0 l0 79 l-115 0 q-79 0 -94 -15 q-20 67 -37 104 q25 7 57 60 q10 14 33 62 l-70 0 l0 94 l112 0 q26 62 39 112 l120 -27 l-34 -85 l251 0 l0 -94 l-296 0 q-15 -30 -57 -107 l91 0 l0 80 l118 0 l0 -80 l171 0 l-1 -104 l-170 0 l0 -79 l225 0 l0 -107 Z" /><glyph glyph-name="" unicode="&#x636e;" d="M355 317 l-102 -31 l0 -235 q0 -79 -39 -102 q-37 -25 -138 -23 q-6 55 -30 109 q62 -2 82 0 q17 0 17 17 l0 202 l-94 -27 l-27 115 q48 11 121 30 l0 176 l-105 0 l0 110 l105 0 l0 189 l108 0 l0 -189 l100 0 l0 -110 l-100 0 l0 -148 l88 24 l14 -107 ZM645 430 l0 88 l-147 0 l0 -16 q0 -46 -1 -72 l148 0 ZM498 706 l0 -86 l321 0 l0 86 l-321 0 ZM829 136 l-242 0 l0 -100 l242 0 l0 100 ZM756 330 l0 -96 l180 0 l0 -320 l-107 0 l0 28 l-242 0 l0 -29 l-102 0 l0 321 l160 0 l0 96 l-154 0 q-21 -274 -119 -420 q-42 42 -96 70 q106 159 106 522 l0 305 l549 0 l0 -289 l-175 0 l0 -88 l203 0 l0 -100 l-203 0 Z" /><glyph glyph-name="" unicode="&#x6392;" d="M374 311 l-103 -28 l0 -237 q0 -78 -42 -102 q-36 -21 -140 -21 q-7 49 -33 106 q35 -1 84 -1 q17 0 17 17 l0 208 l-108 -28 l-18 116 q38 7 126 28 l0 178 l-113 0 l0 110 l113 0 l0 189 l114 0 l0 -189 l90 0 l0 -110 l-90 0 l0 -150 l89 23 l14 -109 ZM522 835 l114 0 l0 -920 l-114 0 l0 244 l-151 0 l0 107 l151 0 l0 108 l-126 0 l0 103 l126 0 l0 108 l-129 0 l0 104 l129 0 l0 146 ZM967 157 l-149 0 l0 -244 l-114 0 l0 923 l114 0 l0 -147 l137 0 l0 -104 l-137 0 l0 -108 l129 0 l0 -103 l-129 0 l0 -110 l149 0 l0 -107 Z" /><glyph glyph-name="" unicode="&#x63a5;" d="M339 312 q-58 -18 -88 -26 l0 -241 q0 -78 -40 -103 q-37 -24 -135 -22 q-6 56 -31 110 q55 -3 80 -1 q16 0 16 17 l0 207 l-91 -26 l-26 114 q48 10 117 29 l0 178 l-101 0 l0 110 l101 0 l0 188 l110 0 l0 -188 l82 0 l0 -110 l-82 0 l0 -148 l72 20 l16 -108 ZM588 240 q-9 -16 -40 -63 q32 -11 127 -46 q41 42 65 109 l-152 0 ZM549 657 q40 -62 54 -105 l-56 -23 l135 0 q36 59 62 128 l-195 0 ZM859 240 q-26 -89 -77 -154 q95 -42 163 -85 l-72 -90 q-61 42 -180 99 q-108 -64 -325 -95 q-16 59 -46 99 q158 12 249 49 q-119 46 -184 67 q31 39 78 110 l-125 0 l0 99 l181 0 q28 52 43 89 l-210 0 l0 101 l146 0 q-15 47 -49 103 l65 25 l-132 0 l0 100 l211 0 q-14 32 -33 65 l112 15 q22 -33 43 -80 l218 0 l0 -100 l-164 0 l85 -25 q-42 -72 -61 -103 l160 0 l0 -101 l-359 0 l80 -16 q-16 -38 -34 -73 l327 0 l0 -99 l-110 0 Z" /><glyph glyph-name="" unicode="&#x63a7;" d="M467 550 l-107 0 l0 183 l240 0 q-10 32 -36 92 l114 26 q30 -61 50 -118 l226 0 l0 -179 l-112 0 l0 78 l-375 0 l0 -82 ZM742 594 q185 -148 197 -159 l-75 -79 q-51 55 -193 168 l71 70 ZM351 310 l-99 -36 l0 -220 q0 -79 -40 -102 q-37 -25 -137 -23 q-5 52 -31 109 q62 -2 82 0 q17 0 17 17 l0 180 l-91 -32 l-23 114 q48 13 114 35 l0 209 l-101 0 l0 109 l101 0 l0 178 l109 0 l0 -178 l84 0 l0 -109 l-84 0 l0 -173 l80 26 l19 -104 ZM969 49 l0 -104 l-642 0 l0 104 l262 0 l0 199 l-185 0 l0 104 l20 0 q-28 47 -63 88 q115 65 179 149 l101 -38 q-88 -119 -205 -199 l460 0 l0 -104 l-188 0 l0 -199 l261 0 Z" /><glyph glyph-name="" unicode="&#x63aa;" d="M365 310 l-99 -28 l0 -235 q0 -79 -43 -102 q-37 -21 -150 -21 q-7 51 -33 105 q40 -1 94 -1 q19 0 19 19 l0 205 l-94 -24 l-31 113 l125 29 l0 177 l-112 0 l0 110 l112 0 l0 189 l113 0 l0 -189 l86 0 l0 -110 l-86 0 l0 -150 l85 20 l14 -107 ZM560 273 l0 -66 l232 0 l0 66 l-232 0 ZM792 45 l0 68 l-232 0 l0 -68 l232 0 ZM445 370 l467 1 l0 -457 l-120 0 l0 36 l-232 0 l0 -37 l-115 0 l0 457 ZM613 533 l110 0 l0 94 l-110 0 l0 -94 ZM967 533 l0 -107 l-594 0 l0 107 l126 0 l0 94 l-102 0 l0 104 l102 0 l0 115 l114 0 l0 -115 l110 0 l0 115 l116 0 l0 -115 l106 0 l0 -104 l-106 0 l0 -94 l128 0 Z" /><glyph glyph-name="" unicode="&#x63d0;" d="M787 733 l-269 0 l0 -50 l269 0 l0 50 ZM787 606 l-269 0 l0 -51 l269 0 l0 51 ZM901 471 l-492 0 l0 345 l492 0 l0 -345 ZM252 285 l0 -233 q0 -79 -39 -102 q-37 -25 -138 -23 q-6 57 -31 109 q63 -2 83 0 q17 0 17 17 l0 200 l-92 -26 l-27 115 q2 0 119 29 l0 177 l-108 0 l0 110 l108 0 l0 189 l108 0 l0 -189 l100 0 l0 -110 l-100 0 l0 -148 l90 24 l16 -107 l-106 -32 ZM707 33 q35 -3 70 -3 q158 0 201 1 q-24 -40 -32 -104 l-174 0 q-109 0 -174 27 q-78 33 -126 118 q-40 -96 -105 -157 q-39 41 -87 71 q115 91 139 313 l108 -13 q-8 -59 -19 -101 q31 -81 87 -117 l0 261 l-235 0 l0 96 l591 0 l0 -96 l-244 0 l0 -88 l191 0 l0 -93 l-191 0 l0 -115 Z" /><glyph glyph-name="" unicode="&#x6536;" d="M626 549 l-10 -27 q36 -133 95 -240 q53 109 78 267 l-163 0 ZM907 549 q-40 -230 -124 -376 q82 -104 191 -159 q-47 -38 -81 -98 q-100 58 -179 157 q-78 -97 -198 -164 q-30 54 -77 97 q127 61 208 168 q-58 99 -95 218 q-21 -34 -52 -72 q-25 44 -72 93 l0 -502 l-118 0 l0 258 q-178 -63 -214 -92 q-20 71 -46 109 q37 21 37 71 l0 482 l117 0 l0 -488 l106 32 l0 548 l118 0 l0 -394 q107 133 148 410 l121 -20 q-18 -100 -35 -165 l305 0 l0 -113 l-60 0 Z" /><glyph glyph-name="" unicode="&#x653f;" d="M641 542 q25 -135 76 -252 q47 108 67 265 l-138 0 l-5 -13 ZM904 555 q-36 -238 -116 -385 q77 -103 187 -154 q-51 -45 -81 -102 q-103 53 -179 152 q-84 -96 -204 -155 q-18 50 -67 105 q128 56 204 155 q-47 91 -82 220 q-14 -22 -35 -49 q-21 25 -55 54 l0 -9 l-114 0 l0 -205 l141 30 l10 -109 q-94 -22 -248 -56 l-221 -49 l-21 121 l52 9 l0 426 l107 0 l0 -407 l64 12 l0 515 l-200 0 l0 114 l458 0 l0 -114 l-142 0 l0 -175 l114 0 l0 -25 q87 136 124 373 l118 -18 q-11 -71 -36 -164 l284 0 l0 -110 l-62 0 Z" /><glyph glyph-name="" unicode="&#x6559;" d="M671 555 q22 -132 61 -234 q37 107 53 234 l-114 0 ZM459 414 q24 29 48 73 l-117 0 q-23 -30 -43 -51 l56 0 l21 6 l35 -28 ZM295 589 l35 0 l45 67 l-80 0 l0 -67 ZM908 555 q-32 -227 -108 -372 q69 -112 177 -167 q-49 -44 -82 -104 q-101 61 -168 160 q-85 -99 -212 -163 q-22 56 -68 108 q139 61 215 171 q-41 93 -68 202 q-30 -48 -46 -69 q-21 24 -66 62 q-56 -65 -138 -130 l0 -28 l179 15 l0 -102 l-179 -16 l0 -95 q0 -75 -44 -95 q-37 -17 -145 -17 q-6 47 -34 101 q40 -1 95 -1 q17 1 17 14 l0 84 q-86 -7 -190 -17 l-13 106 l203 15 l0 57 q38 27 83 70 l-63 0 q-79 -66 -153 -107 q-32 46 -80 90 q62 33 100 59 l0 50 l66 0 q33 28 55 51 l-208 0 l0 102 l152 0 l0 67 l-114 0 l0 100 l114 0 l0 91 l110 0 l0 -91 l97 0 l0 -70 q35 59 63 136 l110 -30 q-40 -105 -102 -203 l56 0 l0 -79 q66 136 97 337 l120 -19 q-18 -102 -35 -163 l266 0 l0 -110 l-59 0 Z" /><glyph glyph-name="" unicode="&#x65b0;" d="M207 202 q-41 -114 -101 -181 q-43 36 -77 56 q54 54 86 148 l92 -23 ZM205 651 q26 -52 34 -111 l-48 -13 l118 0 q27 65 43 124 l-147 0 ZM338 252 l0 -214 q0 -68 -38 -90 q-32 -17 -123 -17 q-7 46 -32 97 q30 -1 72 -1 q14 0 14 14 l0 211 l-184 0 l0 100 l184 0 l0 77 l-190 0 l0 98 l98 0 q-9 58 -30 104 l82 20 l-135 0 l0 97 l171 0 q-12 35 -30 79 l106 25 q29 -62 43 -104 l158 0 l0 -97 l-126 0 l82 -16 q-49 -116 -45 -108 l104 0 l0 -98 l-181 0 l0 -77 l165 0 l0 -100 l-165 0 ZM965 408 l-93 0 l0 -491 l-116 0 l0 491 l-98 0 l0 -7 q0 -332 -99 -476 q-40 45 -91 71 q29 42 44 96 l-79 -50 q-24 61 -78 150 l78 43 q49 -73 80 -141 q34 107 34 307 l0 351 q200 36 303 85 l92 -87 q-113 -44 -284 -75 l0 -157 l307 0 l0 -110 Z" /><glyph glyph-name="" unicode="&#x2f45;&#x65b9;" d="M440 570 q-7 -100 -10 -120 l429 0 q-1 -36 -4 -52 q-24 -367 -80 -425 q-36 -39 -107 -47 q-52 -5 -173 0 q-4 62 -42 117 q78 -8 168 -8 q32 0 49 13 q38 32 58 287 l-315 0 q-60 -295 -288 -427 q-29 54 -87 99 q160 85 221 250 q38 105 48 313 l-252 0 l0 117 l422 0 q-21 50 -60 129 l117 44 q45 -76 72 -143 l-69 -30 l410 0 l0 -117 l-507 0 Z" /><glyph glyph-name="" unicode="&#x65bd;" d="M821 15 q31 0 41 19 q9 19 14 85 q40 -27 97 -40 q-11 -94 -40 -128 q-30 -35 -103 -35 l-176 0 q-90 0 -121 30 q-31 30 -31 116 l0 189 l-36 -17 l-42 98 l78 37 l0 109 l-10 -11 q-46 54 -87 82 q19 19 32 36 l-188 0 l-3 -107 l180 0 l0 -46 q-8 -426 -37 -465 q-22 -34 -64 -43 q-29 -6 -103 -4 q-4 60 -29 106 q41 -4 73 -4 q18 0 28 15 q18 27 23 333 l-77 0 q-24 -311 -129 -456 q-35 51 -85 83 q105 145 111 588 l-96 0 l0 110 l175 0 q-14 59 -42 129 l106 25 q30 -66 49 -135 l-67 -19 l182 0 l0 -101 q73 98 110 254 l114 -23 q-14 -55 -31 -104 l317 0 l0 -108 l-363 0 q-27 -55 -58 -97 l74 0 l0 -98 l58 26 l0 144 l99 0 l0 -98 l70 33 l24 17 l73 -26 l-4 -16 q-2 -252 -4 -275 q-3 -52 -42 -68 q-26 -12 -82 -12 q-6 55 -22 87 q12 -1 34 -1 q12 0 13 15 q1 7 3 160 l-63 -30 l0 -279 l-99 0 l0 232 l-58 -27 l0 -237 q0 -31 10 -40 q10 -8 48 -8 l156 0 Z" /><glyph glyph-name="" unicode="&#x2f47;&#x65e5;" d="M722 110 l0 224 l-444 0 l0 -224 l444 0 ZM278 667 l0 -215 l444 0 l0 215 l-444 0 ZM850 787 l0 -860 l-128 0 l0 63 l-444 0 l0 -65 l-123 0 l0 862 l695 0 Z" /><glyph glyph-name="" unicode="&#x65f6;" d="M180 663 l0 -174 l120 0 l0 174 l-120 0 ZM300 204 l0 181 l-120 0 l0 -181 l120 0 ZM411 97 l-231 0 l0 -80 l-112 0 l0 752 l343 0 l0 -672 ZM968 545 l-102 0 l0 -474 q0 -97 -60 -122 q-52 -23 -214 -21 q-9 57 -42 120 q70 -3 165 -3 q30 0 30 28 l0 472 l-296 0 l0 118 l296 0 l0 177 l121 0 l0 -177 l102 0 l0 -118 ZM601 199 q-32 61 -142 229 l98 52 q124 -174 149 -220 l-105 -61 Z" /><glyph glyph-name="" unicode="&#x6625;" d="M647 54 l0 55 l-303 0 l0 -55 l303 0 ZM647 249 l-303 0 l0 -53 l303 0 l0 53 ZM388 394 q-13 -21 -35 -49 l297 0 q-24 32 -34 49 l-228 0 ZM750 394 q94 -102 225 -150 q-47 -39 -81 -98 q-56 25 -116 70 l0 -299 l-131 0 l0 38 l-303 0 l0 -42 l-124 0 l0 303 q-52 -41 -111 -73 q-30 63 -81 97 q121 62 205 154 l-184 0 l0 102 l261 0 l14 24 q9 15 13 23 l-200 0 l0 94 l240 0 q3 8 7 22 l6 22 l-290 0 l0 100 l312 0 q6 31 9 66 l127 -12 q-3 -29 -9 -54 l358 0 l0 -100 l-379 0 l-12 -44 l361 0 l0 -94 l-397 0 q-7 -20 -21 -47 l504 0 l0 -102 l-203 0 Z" /><glyph glyph-name="" unicode="&#x2f49;&#x6708;" d="M713 327 l0 122 l-401 0 q-2 -67 -7 -122 l408 0 ZM312 684 l0 -122 l401 0 l0 122 l-401 0 ZM839 65 q0 -99 -63 -126 q-53 -23 -221 -23 q-12 58 -50 125 q53 -3 176 -3 q32 0 32 29 l0 145 l-428 0 q-45 -195 -169 -299 q-35 49 -92 86 q165 141 165 472 l0 329 l650 0 l0 -735 Z" /><glyph glyph-name="" unicode="&#x6709;" d="M717 432 l-361 0 l0 -64 l361 0 l0 64 ZM717 204 l0 65 l-361 0 l0 -65 l361 0 ZM410 615 q-19 -42 -40 -79 l463 0 l0 -494 q0 -86 -52 -109 q-41 -20 -177 -20 q-9 56 -36 115 q51 -3 126 -3 q23 1 23 20 l0 60 l-361 0 l0 -191 l-118 0 l0 435 q-66 -72 -132 -117 q-29 44 -78 91 q150 100 249 292 l-219 0 l0 112 l269 0 q24 62 39 121 l123 -28 q-20 -62 -32 -93 l488 0 l0 -112 l-535 0 Z" /><glyph glyph-name="" unicode="&#x671f;" d="M230 254 l124 0 l0 68 l-124 0 l0 -68 ZM230 625 l0 -58 l124 0 l0 58 l-124 0 ZM230 413 l124 0 l0 63 l-124 0 l0 -63 ZM524 150 l-491 0 l0 104 l90 0 l0 371 l-78 0 l0 104 l78 0 l0 106 l107 0 l0 -106 l124 0 l0 106 l109 0 l0 -106 l68 0 l0 -104 l-68 0 l0 -371 l61 0 l0 -104 ZM268 110 q-56 -116 -148 -200 q-41 39 -95 71 q87 65 132 162 l111 -33 ZM820 350 l0 123 l-144 0 l0 -37 q0 -55 -1 -86 l145 0 ZM676 695 l0 -117 l144 0 l0 117 l-144 0 ZM935 45 q0 -84 -46 -109 q-42 -23 -160 -21 q-8 61 -34 113 q29 -2 105 -2 q20 0 20 21 l0 197 l-152 0 q-20 -217 -90 -333 q-43 47 -94 67 l5 9 q4 5 5 8 l-83 -47 q-32 63 -107 151 l90 49 q78 -86 108 -136 q63 136 63 424 l0 367 l370 0 l0 -758 Z" /><glyph glyph-name="" unicode="&#x672a;" d="M618 333 q143 -182 356 -275 q-44 -37 -86 -103 q-180 93 -325 275 l0 -318 l-127 0 l0 312 q-143 -173 -325 -268 q-43 64 -88 103 q212 90 358 274 l-324 0 l0 118 l379 0 l0 128 l-304 0 l0 118 l304 0 l0 149 l127 0 l0 -149 l313 0 l0 -118 l-313 0 l0 -128 l385 0 l0 -118 l-330 0 Z" /><glyph glyph-name="" unicode="&#x673a;" d="M392 244 q-30 56 -79 130 l0 -461 l-118 0 l0 383 q-52 -134 -107 -206 q-11 32 -59 110 q101 139 154 347 l-136 0 l0 113 l148 0 l0 186 l118 0 l0 -186 l115 0 l0 -113 l-115 0 l0 -24 q75 -79 140 -165 l-61 -114 ZM867 36 q9 0 12 6 q6 7 7 37 q3 60 3 128 q37 -31 86 -47 q-2 -111 -12 -154 q-7 -42 -31 -61 q-22 -18 -62 -18 l-54 0 q-42 0 -69 27 q-26 29 -26 129 l0 594 l-129 0 l0 -210 q0 -388 -169 -556 q-38 48 -95 80 q143 142 143 477 l0 322 l369 0 l0 -704 q0 -39 3 -44 q5 -6 10 -6 l14 0 Z" /><glyph glyph-name="" unicode="&#x6784;" d="M691 117 q-5 23 -17 61 q-217 -44 -251 -62 q-9 38 -36 102 q26 7 50 56 q60 109 94 258 l112 -32 q-36 -115 -109 -252 l108 19 q-15 44 -34 86 l88 31 q66 -144 89 -230 l-94 -37 ZM946 689 l-1 -56 q-19 -599 -63 -660 q-32 -45 -89 -54 q-37 -8 -138 -4 q-4 64 -37 118 q50 -5 119 -5 q25 0 38 18 q37 45 51 533 l-297 0 q-45 -88 -92 -152 q-46 46 -97 75 q23 27 38 49 l-89 0 l0 -35 q66 -80 124 -182 l-72 -82 q-11 33 -52 117 l0 -456 l-116 0 l0 389 q-44 -135 -94 -209 q-20 61 -56 119 q90 117 143 339 l-124 0 l0 110 l131 0 l0 186 l116 0 l0 -186 l95 0 l0 -101 q78 116 119 287 l116 -26 q-15 -58 -43 -132 l370 0 Z" /><glyph glyph-name="" unicode="&#x6821;" d="M336 222 q-15 43 -56 132 l0 -441 l-109 0 l0 404 q-46 -158 -95 -237 q-20 59 -55 118 q81 114 130 342 l-99 0 l0 110 l119 0 l0 198 l109 0 l0 -197 l99 0 l0 -111 l-99 0 l0 -32 q12 -16 124 -196 l-68 -90 ZM876 336 q-11 20 -25 40 q-40 -127 -109 -221 q101 -89 238 -128 q-46 -42 -79 -107 q-139 48 -238 144 q-98 -94 -240 -152 q-32 57 -75 93 q142 54 239 148 q-62 88 -110 211 q-7 -7 -40 -35 q-29 35 -82 74 q94 72 167 195 l105 -48 q-45 -71 -114 -149 l58 15 q32 -92 90 -172 q54 79 79 173 l101 -27 q-54 76 -133 152 l68 57 l-372 0 l0 109 l225 0 q-22 54 -63 111 l105 39 q51 -61 76 -123 l-63 -27 l272 0 l0 -109 l-157 0 q120 -112 164 -188 l-87 -75 Z" /><glyph glyph-name="" unicode="&#x6839;" d="M338 258 q-14 36 -48 109 l0 -454 l-108 0 l0 389 q-46 -137 -97 -209 q-18 53 -56 119 q91 115 145 339 l-132 0 l0 110 l140 0 l0 187 l108 0 l0 -187 l101 0 l0 -110 l-101 0 l0 -36 q61 -80 116 -177 l-68 -80 ZM545 451 l229 0 l0 80 l-229 0 l0 -80 ZM545 705 l0 -78 l229 0 l0 78 l-229 0 ZM945 254 q-69 -55 -140 -100 q67 -91 169 -135 q-44 -38 -80 -103 q-204 107 -287 432 l-62 0 l0 -287 l142 31 q-3 -47 4 -103 q-222 -57 -255 -79 q-21 62 -51 93 q44 27 44 84 l0 720 l460 0 l0 -459 l-180 0 q15 -49 43 -110 q72 54 116 100 l77 -84 Z" /><glyph glyph-name="" unicode="&#x6848;" d="M391 515 l-37 -38 q75 -13 175 -32 q54 29 89 70 l-227 0 ZM185 432 q42 37 82 83 l-211 0 l0 93 l291 0 q31 40 52 74 l-216 0 l0 -55 l-110 0 l0 153 l355 0 q-10 23 -21 42 l103 33 q38 -66 42 -75 l377 0 l0 -153 l-115 0 l0 55 l-371 0 l73 -22 l-40 -52 l468 0 l0 -93 l-194 0 q-36 -57 -88 -99 q161 -39 266 -76 l-96 -81 q-100 41 -287 87 q-147 -62 -443 -84 q-16 54 -42 91 q184 8 303 33 q-83 17 -191 34 l13 12 ZM648 137 q139 -82 333 -113 q-46 -46 -76 -101 q-205 51 -348 168 l0 -178 l-119 0 l0 173 q-137 -113 -341 -164 q-31 57 -74 96 q196 34 331 119 l-306 0 l0 98 l390 0 l0 69 l119 0 l0 -69 l398 0 l0 -98 l-307 0 Z" /><glyph glyph-name="" unicode="&#x6b63;" d="M955 67 l0 -117 l-909 0 l0 117 l123 0 l0 444 l124 0 l0 -444 l174 0 l0 599 l-386 0 l0 116 l847 0 l0 -116 l-335 0 l0 -220 l283 0 l0 -116 l-283 0 l0 -263 l362 0 Z" /><glyph glyph-name="" unicode="&#x6bb5;" d="M440 133 q20 4 -220 -37 l0 -162 l-114 0 l0 144 l-62 -10 l-18 112 l80 10 l0 561 l4 -1 l-1 1 q149 44 264 108 l94 -91 q-105 -45 -247 -87 l0 -67 l202 0 l0 -103 l-202 0 l0 -100 l199 0 l0 -103 l-199 0 l0 -103 l214 30 l6 -102 ZM593 300 q33 -75 91 -137 q57 58 90 137 l-181 0 ZM915 379 q-39 -174 -141 -287 q80 -53 198 -77 q-42 -41 -74 -102 q-125 35 -212 102 q-91 -66 -233 -106 q-26 65 -60 102 q121 26 210 84 q-66 81 -110 190 l61 15 l-97 0 l0 100 l35 0 q-36 41 -78 71 q108 67 108 215 l0 123 l208 -1 l0 1 l109 0 l0 -235 q0 -38 15 -38 l45 0 q31 0 50 6 q4 -63 9 -91 q-17 -7 -58 -7 l-57 0 q-68 0 -92 31 q-21 28 -21 101 l0 132 l-98 0 l0 -25 q0 -195 -126 -283 l316 0 l20 3 l73 -24 Z" /><glyph glyph-name="" unicode="&#x6bd5;" d="M662 366 q-90 0 -121 31 q-30 30 -30 115 l0 326 l121 0 l0 -149 q118 41 219 94 l82 -96 q-133 -55 -301 -100 l0 -75 q0 -28 8 -35 q8 -7 39 -7 l119 0 q27 0 36 21 q8 20 12 92 q46 -32 106 -43 q-10 -102 -40 -138 q-29 -36 -103 -36 l-147 0 ZM479 524 q-3 -54 3 -106 q-328 -67 -359 -84 q-15 53 -54 99 q55 38 55 94 l0 307 l122 0 l0 -112 l227 0 l0 -105 l-227 0 l0 -136 l233 43 ZM956 144 l-399 0 l0 -231 l-120 0 l0 231 l-390 0 l0 106 l390 0 l0 109 l120 0 l0 -109 l399 0 l0 -106 Z" /><glyph glyph-name="" unicode="&#x6c42;" d="M916 480 q-97 -109 -190 -191 q112 -123 247 -182 q-51 -44 -88 -107 q-197 103 -326 334 l0 -274 q0 -96 -56 -123 q-50 -26 -195 -24 q-9 64 -40 125 q40 -2 143 -2 q26 0 26 25 l0 154 q-170 -110 -330 -206 l-76 108 q159 81 406 223 l0 241 l-376 0 l0 115 l376 0 l0 149 l122 0 l0 -149 l199 0 q-61 40 -135 78 l71 75 q118 -54 185 -104 l-44 -49 l109 0 l0 -115 l-385 0 l0 -12 q41 -106 101 -193 q100 102 151 177 l105 -73 ZM254 291 q-43 82 -159 190 l91 63 q121 -107 165 -181 l-97 -72 Z" /><glyph glyph-name="" unicode="&#x6d77;" d="M266 638 q-51 49 -172 113 l66 80 q115 -54 177 -103 l-71 -90 ZM200 357 q-50 50 -162 110 l64 81 q105 -47 166 -101 l-68 -90 ZM64 -6 q68 127 139 321 l91 -66 q-62 -177 -126 -320 l-104 65 ZM774 164 q5 39 10 106 l-161 0 q63 -52 89 -84 l-32 -22 l94 0 ZM488 270 l-15 -106 l151 0 q-34 38 -87 82 l38 24 l-87 0 ZM514 473 l-12 -95 l135 0 q-27 33 -73 73 l34 22 l-84 0 ZM646 473 q56 -50 76 -76 l-28 -19 l96 0 q0 13 2 46 l2 49 l-148 0 ZM893 270 q-4 -58 -9 -106 l61 0 l0 -101 l-74 0 q-11 -66 -30 -93 q-27 -37 -81 -45 q-43 -7 -125 -2 q-4 54 -31 97 q44 -4 103 -4 q23 0 37 16 q8 13 13 31 l-413 0 q17 88 34 207 l-89 0 l0 108 l103 0 q10 76 18 159 q-10 -15 -37 -51 q-42 33 -102 65 q102 108 160 296 l115 -29 q-15 -44 -27 -72 l425 0 l0 -106 l-474 0 q-26 -50 -36 -66 l473 0 q0 -35 -1 -50 l-7 -146 l71 0 l0 -108 l-77 0 Z" /><glyph glyph-name="" unicode="&#x708e;" d="M858 753 q-69 -104 -123 -164 l-94 31 q66 80 103 163 l114 -30 ZM340 742 q-60 -118 -125 -169 l-91 55 q77 55 124 156 l92 -42 ZM856 365 q-114 78 -369 194 q-92 -146 -373 -198 q-16 51 -58 98 q233 38 310 134 q55 69 69 253 l122 0 q-10 -126 -31 -195 q269 -110 392 -188 l-62 -98 ZM630 196 q63 74 106 163 l118 -37 q-81 -114 -126 -160 l-98 34 ZM111 194 q80 61 128 169 l95 -42 q-58 -124 -128 -178 l-95 51 ZM556 441 q-2 -35 -8 -86 q33 -161 124 -235 q97 -78 300 -92 q-42 -46 -65 -110 q-167 21 -263 80 q-94 57 -145 167 q-87 -184 -398 -251 q-19 56 -60 101 q240 45 321 155 q57 76 71 271 l123 0 Z" /><glyph glyph-name="" unicode="&#x70b9;" d="M727 443 l-459 0 l0 -127 l459 0 l0 127 ZM848 206 l-693 0 l0 347 l280 0 l0 294 l121 0 l0 -88 l358 0 l0 -111 l-358 0 l0 -95 l292 0 l0 -347 ZM31 -30 q76 68 125 195 l115 -28 q-51 -141 -130 -220 l-110 53 ZM433 141 q24 -110 28 -206 l-121 -15 q0 95 -20 210 l113 11 ZM633 153 q57 -116 76 -198 l-115 -30 q-18 86 -70 204 l109 24 ZM834 173 q96 -125 131 -209 l-115 -44 q-33 89 -123 215 l107 38 Z" /><glyph glyph-name="" unicode="&#x7167;" d="M192 705 l0 -130 l97 0 l0 130 l-97 0 ZM289 326 l0 145 l-97 0 l0 -145 l97 0 ZM569 281 l224 0 l0 107 l-224 0 l0 -107 ZM192 173 l-112 0 l0 636 l318 0 l0 -247 q142 39 171 146 l-142 0 l0 104 l515 0 l-2 -40 q-11 -193 -40 -224 q-24 -27 -69 -32 q-43 -5 -115 -2 q-4 54 -29 95 q51 -4 87 -4 q20 0 30 10 q13 13 20 93 l-138 0 q-33 -166 -203 -225 l428 0 l0 -298 l-454 0 l0 290 l-2 -1 q-18 46 -57 83 l0 -337 l-206 0 l0 -47 ZM35 -42 q75 89 123 206 l115 -32 q-58 -133 -123 -223 l-115 49 ZM434 139 q24 -122 26 -204 l-117 -18 q0 90 -19 209 l110 13 ZM647 148 q44 -111 59 -203 l-119 -24 q-10 84 -52 207 l112 20 ZM849 171 q86 -134 116 -209 l-115 -49 q-31 86 -109 216 l108 42 Z" /><glyph glyph-name="" unicode="&#x7269;" d="M425 301 l-108 -33 l0 -356 l-109 0 l0 323 q-137 -41 -150 -44 l-29 113 q68 15 179 46 l0 191 l-67 0 q-17 -78 -37 -128 q-22 18 -84 55 q40 103 57 322 l99 -17 q-6 -57 -15 -119 l47 0 l0 192 l109 0 l0 -192 l83 0 l0 -113 l-83 0 l0 -161 l92 26 l16 -105 ZM963 692 q-1 -40 -2 -54 q-25 -594 -75 -659 q-28 -41 -78 -52 q-37 -7 -113 -3 q-6 66 -33 116 q37 -4 89 -4 q22 0 37 19 q38 48 59 527 l-5 0 q-90 -460 -313 -645 q-39 39 -97 69 q221 159 310 576 l-47 0 q-80 -296 -229 -438 q-34 36 -91 67 q142 112 221 371 l-51 0 q-45 -108 -103 -179 q-29 29 -90 67 q112 124 164 377 l108 -20 q-13 -59 -37 -135 l376 0 Z" /><glyph glyph-name="" unicode="&#x7279;" d="M400 269 l-86 -27 l0 -329 l-113 0 l0 294 l-135 -41 l-25 121 q85 19 160 39 l0 213 l-55 0 q-16 -89 -32 -146 q-23 16 -87 44 q38 115 50 331 l93 -17 q-3 -49 -9 -99 l40 0 l0 194 l113 0 l0 -194 l76 0 l0 -113 l-76 0 l0 -182 l77 22 l9 -110 ZM857 455 l0 -90 l98 0 l0 -110 l-98 0 l0 -209 q0 -87 -49 -111 q-42 -20 -166 -20 q-9 58 -34 118 q47 -2 116 -2 q20 1 20 17 l0 207 l-202 0 q80 -84 115 -149 l-91 -61 q-31 67 -110 157 l83 53 l-118 0 l0 110 l323 0 l0 90 l-343 0 l0 110 l230 0 l0 85 l-172 0 l0 108 l172 0 l0 89 l114 0 l0 -89 l177 0 l0 -108 l-177 0 l0 -85 l219 0 l0 -110 l-107 0 Z" /><glyph glyph-name="" unicode="&#x2f63;&#x751f;" d="M952 58 l0 -117 l-899 0 l0 117 l386 0 l0 201 l-271 0 l0 115 l271 0 l0 176 l-207 0 q-49 -93 -93 -145 q-54 43 -107 71 q120 129 177 358 l123 -27 q-19 -66 -47 -141 l154 0 l0 180 l125 0 l0 -180 l337 0 l0 -116 l-337 0 l0 -176 l299 0 l0 -115 l-299 0 l0 -201 l388 0 Z" /><glyph glyph-name="" unicode="&#x75ab;" d="M481 205 q39 -60 116 -104 q78 46 123 104 l-239 0 ZM298 440 q0 -38 -1 -57 q72 23 98 56 q20 25 20 68 l0 88 l382 0 l0 -126 q0 -35 17 -35 l55 0 q38 0 57 8 q3 -48 9 -106 q-21 -8 -63 -8 l-66 0 q-75 0 -101 33 q-24 29 -24 109 l0 24 l-157 0 q-4 -133 -128 -190 l392 0 l20 4 l71 -30 q-50 -137 -165 -224 q92 -27 235 -37 q-39 -44 -65 -104 q-174 18 -290 71 q-111 -47 -270 -73 q-16 54 -50 100 q116 12 210 42 q-70 59 -116 144 l30 8 l-53 0 l0 99 l9 0 q-20 33 -57 70 q-12 -318 -139 -465 q-39 39 -99 69 q85 97 110 266 q-68 -44 -109 -68 l-34 110 q46 21 155 78 q1 27 1 78 l0 34 l-72 -33 q-20 62 -83 180 l94 41 q48 -85 61 -112 l0 193 l345 0 q-11 30 -34 80 l119 29 q31 -61 48 -109 l303 0 l0 -109 l-665 0 l0 -196 Z" /><glyph glyph-name="" unicode="&#x7684;" d="M343 121 l0 196 l-159 0 l0 -196 l159 0 ZM343 582 l-159 0 l0 -162 l159 0 l0 162 ZM942 693 q0 -40 -1 -54 q-17 -597 -65 -659 q-33 -44 -96 -55 q-44 -6 -157 -2 q-4 60 -39 116 q64 -6 149 -6 q27 0 44 17 q38 42 53 535 l-214 0 q-39 -90 -88 -158 q-17 16 -77 56 l0 -467 l-267 0 l0 -73 l-108 0 l0 743 l113 0 q23 87 29 161 l130 -18 q-28 -82 -52 -143 l155 0 l0 -162 q86 125 135 322 l113 -26 q-12 -51 -39 -127 l282 0 ZM675 175 q-37 78 -139 231 l93 53 q108 -149 147 -222 l-101 -62 Z" /><glyph glyph-name="" unicode="&#x7701;" d="M360 763 q-72 -158 -185 -261 q-46 40 -102 69 q109 84 169 223 l118 -31 ZM719 341 l-395 0 l0 -44 l395 0 l0 44 ZM719 38 l0 49 l-395 0 l0 -49 l395 0 ZM324 167 l395 0 l0 49 l-395 0 l0 -49 ZM854 515 q-24 43 -74 98 q-99 -108 -277 -183 l337 0 l0 -513 l-121 0 l0 33 l-395 0 l0 -38 l-115 0 l0 429 q-60 -13 -113 -21 q-33 60 -73 103 q245 30 412 94 l0 329 l118 0 l0 -272 q75 44 118 94 l102 -46 q-54 61 -125 125 l94 57 q151 -124 216 -224 l-104 -65 Z" /><glyph glyph-name="" unicode="&#x77e5;" d="M337 340 q-4 -28 -7 -41 q64 -62 188 -209 l-80 -100 q-45 71 -139 188 q-58 -166 -189 -262 q-34 53 -85 90 q162 116 192 334 l-177 0 l0 112 l185 0 l0 159 l-40 0 q-31 -80 -68 -134 q-44 40 -96 69 q77 103 112 301 l114 -23 q-11 -56 -25 -103 l264 0 l0 -110 l-141 0 l0 -159 l164 0 l0 -112 l-172 0 ZM796 126 l0 523 l-145 0 l0 -523 l145 0 ZM917 761 l0 -804 l-121 0 l0 57 l-145 0 l0 -72 l-115 0 l0 819 l381 0 Z" /><glyph glyph-name="" unicode="&#x7814;" d="M295 388 l-90 0 l0 -250 l90 0 l0 250 ZM262 692 q-20 -103 -53 -199 l187 0 l0 -460 l-191 0 l0 -73 l-99 0 l0 311 q-21 -31 -41 -55 q-10 78 -40 142 q85 114 127 334 l-106 0 l0 108 l363 0 l0 -108 l-147 0 ZM749 440 l0 247 l-112 0 l0 -247 l112 0 ZM967 328 l-105 0 l0 -416 l-113 0 l0 416 l-114 0 q-12 -289 -138 -423 q-38 40 -90 69 q105 114 117 354 l-93 0 l0 112 l95 0 l0 247 l-69 0 l0 110 l490 0 l0 -110 l-85 0 l0 -247 l105 0 l0 -112 Z" /><glyph glyph-name="" unicode="&#x786e;" d="M277 389 l-69 0 l0 -251 l69 0 l0 251 ZM208 34 l0 -74 l-98 0 l0 313 q-19 -30 -42 -57 q-10 77 -42 142 q86 115 128 337 l-105 0 l0 108 l349 0 l0 -108 l-134 0 q-24 -116 -53 -202 l164 0 l0 -459 l-167 0 ZM824 249 l0 78 l-90 0 l0 -78 l90 0 ZM630 249 l0 78 l-83 0 q0 -37 -3 -78 l86 0 ZM560 669 q-19 -33 -52 -79 l150 0 q27 34 53 79 l-151 0 ZM547 417 l83 0 l0 73 l-83 0 l0 -73 ZM824 490 l-90 0 l0 -73 l90 0 l0 73 ZM936 35 q0 -73 -38 -95 q-29 -18 -128 -18 q-6 56 -26 101 q28 -1 66 -1 q14 0 14 14 l0 112 l-90 0 l0 -190 l-104 0 l0 190 l-98 0 q-27 -153 -98 -236 q-44 42 -94 62 q98 115 98 368 l0 166 q-15 -16 -35 -33 q-25 48 -64 93 q130 103 189 280 l102 -26 q-7 -19 -23 -57 l169 0 l16 4 l77 -51 q-41 -70 -88 -128 l155 0 l0 -555 Z" /><glyph glyph-name="" unicode="&#x793e;" d="M367 206 q-27 41 -73 97 l0 -390 l-117 0 l0 368 q-68 -61 -114 -88 q-20 81 -45 121 q160 88 257 259 l-228 0 l0 107 l175 0 q-31 63 -81 123 l94 49 q61 -66 91 -126 l-79 -46 l93 0 l20 5 l63 -46 q-40 -105 -115 -209 q19 -16 133 -125 l-74 -99 ZM966 62 l0 -118 l-577 0 l0 118 l241 0 l0 371 l-197 0 l0 115 l197 0 l0 293 l123 0 l0 -293 l189 0 l0 -115 l-189 0 l0 -371 l213 0 Z" /><glyph glyph-name="" unicode="&#x79d1;" d="M630 569 q-46 71 -149 150 l78 68 q116 -88 154 -144 l-83 -74 ZM604 305 q-46 65 -159 153 l76 68 q114 -80 164 -145 l-81 -76 ZM362 209 q-15 35 -60 110 l0 -406 l-115 0 l0 360 q-55 -129 -109 -198 q-15 46 -55 113 q84 96 148 268 l-135 0 l0 111 l151 0 l0 113 q-83 -13 -113 -16 q-6 40 -32 92 q192 29 322 82 l67 -97 q-54 -21 -129 -37 l0 -137 l132 0 l0 -111 l-132 0 l0 -8 q50 -49 130 -145 l-70 -94 ZM855 166 l0 -252 l-117 0 l0 231 l-302 -52 l-19 113 l321 55 l0 586 l117 0 l0 -566 l99 17 l19 -111 l-118 -21 Z" /><glyph glyph-name="" unicode="&#x2f74;&#x7acb;" d="M912 548 l-820 0 l0 120 l363 0 q-16 74 -48 160 l119 30 q34 -81 54 -159 l-107 -31 l439 0 l0 -120 ZM299 95 q-18 156 -83 395 l120 29 q61 -202 91 -391 l-128 -33 ZM954 71 l0 -121 l-907 0 l0 121 l490 0 q85 208 129 445 l135 -26 q-57 -219 -135 -419 l288 0 Z" /><glyph glyph-name="" unicode="&#x7b2c;" d="M764 570 q-19 43 -72 115 l-40 0 q-31 -59 -78 -115 l190 0 ZM747 472 l-199 0 l0 -57 l199 0 l0 57 ZM431 317 l-163 0 l-4 -30 q-2 -19 -4 -29 l171 0 l0 59 ZM233 684 q-40 -63 -88 -114 l170 0 q-16 54 -52 114 l-30 0 ZM961 685 l-141 0 q33 -43 48 -73 l-102 -42 l99 0 l0 -253 l-317 0 l0 -59 l366 0 q-1 -29 -3 -43 q-14 -190 -48 -224 q-26 -30 -76 -35 q-47 -5 -127 -2 q-4 63 -33 108 q64 -6 102 -4 q24 0 34 9 q16 16 24 92 l-239 0 l0 -247 l-117 0 l0 195 q-128 -125 -304 -191 q-34 58 -75 94 q167 50 290 149 l-215 0 q25 114 37 256 l267 0 l0 57 l-303 0 l0 96 q-39 27 -90 50 q108 92 161 237 l108 -29 l-25 -56 l231 0 l0 -86 l-130 0 q27 -51 36 -77 l-98 -37 l238 0 q-45 30 -95 54 q95 85 136 231 l115 -27 q-8 -28 -20 -57 l266 0 l0 -86 Z" /><glyph glyph-name="" unicode="&#x7b56;" d="M575 226 q50 -44 125 -83 q-11 38 -39 89 q22 -2 85 -2 q16 0 16 14 l0 70 l-187 0 l0 -88 ZM447 565 l0 53 l17 0 q-16 11 -30 18 q13 10 37 34 l-123 0 q26 -48 34 -70 l-90 -35 l155 0 ZM885 244 q0 -70 -46 -89 q-36 -15 -133 -15 q122 -62 268 -89 q-45 -47 -75 -105 q-179 45 -324 162 l0 -196 l-128 0 l0 199 q-137 -119 -332 -172 q-32 59 -74 100 q274 54 406 205 l0 70 l-191 0 l0 -177 l-126 0 l0 278 l317 0 l0 48 l-381 0 l0 102 l212 0 q-16 47 -51 105 l-17 0 q-37 -56 -83 -100 q-41 34 -99 65 q101 85 153 219 l113 -31 q-14 -34 -24 -54 l216 0 l0 -82 q61 70 95 167 l117 -29 q-12 -30 -24 -56 l278 0 l0 -99 l-163 0 q25 -41 35 -69 l-106 -34 q-11 38 -51 103 l-48 0 q-22 -33 -44 -58 l0 -47 l360 0 l0 -102 l-360 0 l0 -48 l310 0 l0 -171 Z" /><glyph glyph-name="" unicode="&#x7ea7;" d="M383 370 q-3 -50 5 -100 q-288 -83 -324 -108 q-18 63 -36 103 q32 7 81 66 q33 35 82 108 q-104 -12 -133 -25 q-11 50 -37 107 q24 7 60 59 q75 105 130 273 l108 -51 q-64 -150 -151 -268 l88 7 q27 43 59 106 l95 -60 q-77 -135 -172 -255 l145 38 ZM616 675 q-6 -102 -17 -212 q47 -137 126 -242 q56 89 88 207 l-165 0 q36 112 69 247 l-101 0 ZM946 506 q-43 -218 -144 -373 q81 -78 175 -120 q-43 -38 -78 -96 q-97 52 -168 124 q-73 -80 -161 -128 q-34 55 -83 89 q93 47 168 127 q-50 69 -87 140 q-45 -225 -150 -359 q-45 40 -104 72 q40 46 75 112 q-139 -61 -319 -135 l-28 118 q69 22 339 125 l20 -83 q82 186 99 556 l-98 0 l0 111 l460 0 q-37 -151 -67 -256 l58 0 l19 5 l74 -29 Z" /><glyph glyph-name="" unicode="&#x7ebf;" d="M830 681 q-41 38 -124 94 l69 62 q82 -48 126 -86 l-71 -70 ZM396 343 q-7 -52 -3 -99 q-273 -53 -310 -74 q-15 55 -37 104 q31 7 80 64 q22 22 79 99 q-104 -12 -129 -24 q-14 53 -38 109 q24 7 60 59 q73 96 126 264 l111 -54 q-55 -128 -148 -258 l84 7 q36 58 58 105 l96 -61 q-81 -143 -186 -267 l157 26 ZM407 76 q-293 -103 -333 -116 l-24 112 q49 13 339 101 l18 -97 ZM960 306 q-70 -111 -176 -195 q35 -82 71 -82 q26 0 33 106 q35 -43 83 -66 q-14 -91 -42 -124 q-27 -31 -87 -31 q-89 0 -154 129 q-102 -65 -241 -115 q-23 49 -72 98 q156 46 273 121 q-25 91 -40 182 l-178 -32 l-19 105 l183 34 q-4 31 -10 95 l-133 -21 l-20 107 l146 22 q-6 105 -6 211 l118 0 q-2 -98 3 -193 l214 32 l20 -103 l-227 -36 l9 -93 l225 40 l19 -103 l-229 -43 q15 -84 25 -129 q68 57 112 129 l100 -45 Z" /><glyph glyph-name="" unicode="&#x7ec4;" d="M411 343 q-6 -45 -4 -96 q-290 -56 -328 -77 q-10 42 -34 99 q26 6 82 64 q33 37 84 105 q-112 -13 -139 -26 q-12 46 -36 106 q22 6 60 60 q73 99 130 272 l106 -49 q-63 -146 -153 -272 l98 8 q38 62 60 103 l90 -58 q-88 -145 -192 -268 l176 29 ZM404 57 q-134 -39 -336 -91 l-21 113 q138 27 344 76 l13 -98 ZM588 38 l178 0 l0 151 l-178 0 l0 -151 ZM588 690 l0 -144 l178 0 l0 144 l-178 0 ZM588 294 l178 0 l0 146 l-178 0 l0 -146 ZM964 38 l0 -107 l-577 0 l0 107 l88 0 l0 760 l409 0 l0 -760 l80 0 Z" /><glyph glyph-name="" unicode="&#x7ecd;" d="M33 70 q116 21 359 74 l11 -98 l-349 -89 l-21 113 ZM411 346 q-5 -40 -3 -97 q-303 -59 -339 -79 q-13 53 -35 101 q33 7 84 63 q38 38 89 105 q-121 -14 -148 -26 q-16 58 -37 107 q25 6 64 59 q83 108 139 269 l108 -54 q-61 -132 -162 -265 l107 9 q33 50 59 98 l92 -60 q-88 -140 -198 -261 l180 31 ZM567 228 l0 -167 l238 0 l0 167 l-238 0 ZM456 334 l466 0 l0 -417 l-117 0 l0 38 l-238 0 l0 -42 l-111 0 l0 421 ZM939 800 l-2 -45 q-10 -295 -43 -335 q-25 -32 -72 -40 q-31 -5 -117 -3 q-2 60 -32 110 q48 -5 90 -5 q21 0 33 12 q18 24 26 198 l-148 0 q-16 -123 -60 -197 q-55 -91 -167 -141 q-25 54 -68 90 q154 65 178 248 l-130 0 l0 108 l512 0 Z" /><glyph glyph-name="" unicode="&#x7ed3;" d="M28 75 q113 16 385 67 l9 -111 q-78 -17 -375 -78 l-19 122 ZM264 548 q37 60 60 106 l105 -69 q-85 -140 -195 -262 l172 26 q-2 -50 7 -102 q-305 -55 -345 -76 q-11 51 -39 114 q28 6 83 63 q29 27 79 94 q-107 -12 -131 -24 q-13 55 -41 116 q27 7 61 57 q74 101 126 258 l123 -51 q-62 -137 -150 -256 l85 6 ZM578 208 l0 -145 l212 0 l0 145 l-212 0 ZM461 315 l451 0 l0 -398 l-122 0 l0 39 l-212 0 l0 -43 l-117 0 l0 402 ZM746 611 l0 -110 l184 0 l0 -113 l-493 0 l0 113 l184 0 l0 110 l-209 0 l0 114 l209 0 l0 123 l125 0 l0 -123 l208 0 l0 -114 l-208 0 Z" /><glyph glyph-name="" unicode="&#x7ee7;" d="M950 752 q-58 -133 -84 -181 l-67 22 q37 87 58 182 l93 -23 ZM579 574 q-11 68 -48 180 l75 18 q34 -91 52 -177 l-79 -21 ZM684 323 q-54 -118 -116 -183 q-13 44 -47 101 q79 76 134 204 l-131 0 l0 99 l160 0 l0 295 l98 0 l0 -295 l172 0 l0 -99 l-157 0 q85 -96 162 -203 l-72 -78 q-38 78 -105 176 l0 -261 l-98 0 l0 244 ZM34 77 q105 19 331 69 l11 -96 l-323 -83 l-19 110 ZM248 535 q42 77 56 107 l93 -59 q-78 -142 -180 -269 l149 26 q-6 -48 -4 -99 q-260 -50 -296 -71 q-16 60 -34 101 q28 7 77 64 q27 30 76 102 q-102 -12 -125 -24 q-17 64 -38 108 q25 7 57 60 q69 102 116 274 l111 -52 q-58 -149 -144 -274 l86 6 ZM965 54 l0 -103 l-568 0 l0 859 l108 0 l0 -756 l460 0 Z" /><glyph glyph-name="" unicode="&#x7eed;" d="M794 404 q16 44 31 105 l-424 0 l0 100 l204 0 l0 61 l-169 0 l0 99 l169 0 l0 77 l116 0 l0 -77 l173 0 l0 -99 l-173 0 l0 -61 l138 0 l17 3 l76 -16 q-33 -131 -66 -213 l-92 21 ZM354 363 q-4 -57 5 -99 q-259 -71 -289 -94 q-10 44 -34 95 q29 7 75 66 q25 28 75 105 q-100 -12 -124 -23 q-12 51 -35 100 q24 6 57 60 q72 97 125 274 l101 -47 q-55 -139 -145 -271 l81 6 q32 60 53 106 l88 -54 q-69 -133 -160 -255 l127 31 ZM371 95 q-98 -42 -309 -126 l-26 110 q86 26 315 111 l20 -95 ZM701 169 q-67 -167 -276 -258 q-24 46 -69 87 q152 62 221 171 l-197 0 l0 103 l122 0 q-46 44 -114 81 l53 57 q83 -45 128 -86 l-45 -52 l93 0 q11 45 11 105 l0 37 l-46 -57 q-39 39 -119 82 l47 56 q74 -34 118 -72 l0 59 l109 0 l0 -108 q0 -52 -7 -102 l208 0 l0 -103 l-237 0 ZM756 155 q139 -91 210 -171 l-76 -72 q-66 83 -205 180 l71 63 Z" /><glyph glyph-name="" unicode="&#x7efc;" d="M505 631 l0 -84 l328 0 l0 84 l-328 0 ZM360 339 q-7 -52 -3 -100 q-255 -48 -289 -69 q-7 29 -34 98 q29 7 78 64 q22 22 80 105 q-108 -13 -132 -25 q-15 57 -36 104 q24 6 58 60 q71 92 125 272 l104 -50 q-59 -144 -147 -269 l90 7 q32 55 55 103 l84 -53 l0 146 l234 0 q-17 49 -39 95 l116 28 q33 -60 52 -123 l194 0 l0 -191 l-90 0 l0 -97 l-378 0 l0 97 l-89 0 l0 29 q-74 -131 -173 -255 l140 24 ZM586 186 q-63 -118 -154 -222 q-47 39 -95 67 l3 3 q-112 -32 -283 -76 l-21 112 q95 17 328 73 l9 -74 q63 74 103 153 l110 -36 ZM739 264 l0 -231 q0 -77 -45 -98 q-40 -19 -143 -17 q-4 43 -32 105 q36 -1 88 -1 q15 0 15 14 l0 228 l-235 0 l0 103 l567 0 l0 -103 l-215 0 ZM867 223 q83 -126 114 -204 l-107 -47 q-27 79 -108 209 l101 42 Z" /><glyph glyph-name="" unicode="&#x8003;" d="M508 567 l59 0 q63 48 95 79 l-154 0 l0 -79 ZM606 467 q-31 -23 -105 -73 l342 0 l0 -90 l-386 0 q-22 -50 -34 -74 l392 0 q-4 -33 -8 -48 q-31 -187 -80 -229 q-37 -32 -110 -35 q-60 -5 -173 0 q-2 58 -40 110 q95 -7 178 -7 q37 0 51 10 q25 18 44 103 l-429 0 q47 81 83 159 q-128 -69 -248 -115 q-14 53 -45 107 q202 69 385 182 l-353 0 l0 100 l321 0 l0 79 l-237 0 l0 97 l237 0 l0 104 l117 0 l0 -104 l201 0 l0 -53 q51 49 104 116 l92 -52 q-76 -98 -177 -187 l215 0 l0 -100 l-337 0 Z" /><glyph glyph-name="" unicode="&#x8005;" d="M491 545 l55 0 q60 46 108 91 l-163 0 l0 -91 ZM709 263 l-344 0 l0 -64 l344 0 l0 64 ZM709 41 l0 68 l-344 0 l0 -68 l344 0 ZM588 440 q-62 -44 -118 -80 l363 0 l0 -444 l-124 0 l0 26 l-344 0 l0 -30 l-119 0 l0 327 q-89 -39 -153 -63 q-32 55 -73 98 q194 61 372 166 l-340 0 l0 105 l321 0 l0 91 l-235 0 l0 103 l235 0 l0 108 l118 0 l0 -108 l217 0 l0 -49 q56 61 103 127 l102 -52 q-84 -116 -197 -220 l232 0 l0 -105 l-360 0 Z" /><glyph glyph-name="" unicode="&#x80b2;" d="M702 155 l0 48 l-401 0 l0 -48 l401 0 ZM301 331 l0 -46 l401 0 l0 46 l-401 0 ZM823 28 q0 -80 -63 -101 q-46 -14 -210 -14 q-9 44 -40 96 q99 -6 164 -3 q28 0 28 23 l0 44 l-401 0 l0 -161 l-120 0 l0 516 l642 0 l0 -400 ZM591 633 l38 24 l-181 0 q-51 -43 -110 -84 l308 13 l-55 47 ZM944 657 l-217 0 q149 -125 178 -154 l-100 -67 q-15 16 -59 59 q-550 -32 -587 -46 q-11 41 -39 118 q24 5 69 33 q31 19 78 57 l-209 0 l0 104 l392 0 l-33 66 l119 33 l54 -99 l354 0 l0 -104 Z" /><glyph glyph-name="" unicode="&#x80ba;" d="M270 353 l0 124 l-84 0 l0 -28 q0 -62 -1 -96 l85 0 ZM186 705 l0 -120 l84 0 l0 120 l-84 0 ZM377 47 q0 -79 -38 -103 q-34 -23 -129 -23 q-4 59 -31 112 q33 -1 76 -1 q15 0 15 17 l0 194 l-91 0 q-14 -214 -65 -333 q-38 32 -94 54 q62 144 62 484 l0 364 l295 0 l0 -765 ZM743 620 l0 -83 l198 0 l0 -358 q0 -79 -38 -104 q-33 -22 -120 -22 q-6 64 -32 118 q30 -1 67 -1 q13 0 13 13 l0 245 l-88 0 l0 -513 l-118 0 l0 513 l-84 0 l0 -365 l-108 0 l0 474 l192 0 l0 83 l-223 0 l0 111 l223 0 l0 103 l118 0 l0 -103 l224 0 l0 -111 l-224 0 Z" /><glyph glyph-name="" unicode="&#x2f83;&#x81ea;" d="M741 74 l0 104 l-475 0 l0 -104 l475 0 ZM266 391 l0 -103 l475 0 l0 103 l-475 0 ZM266 604 l0 -103 l475 0 l0 103 l-475 0 ZM868 718 l0 -803 l-127 0 l0 49 l-475 0 l0 -50 l-121 0 l0 804 l256 0 q21 81 27 131 l144 -16 q-22 -59 -47 -115 l343 0 Z" /><glyph glyph-name="" unicode="&#x83b7;" d="M272 671 l-214 0 l0 107 l214 0 l0 69 l118 0 l0 -69 l224 0 l0 69 l119 0 l0 -69 l211 0 l0 -107 l-211 0 l0 -57 l-119 0 l0 57 l-224 0 l0 -66 l-118 0 l0 66 ZM399 548 q-29 -34 -83 -79 q61 -98 61 -259 q0 -186 -59 -250 q-22 -25 -59 -33 q-48 -10 -125 -7 q-2 58 -32 102 q75 -5 106 0 q18 1 30 16 q30 37 30 179 l0 10 q-80 -80 -168 -132 q-30 50 -69 86 q141 57 219 169 q-6 23 -22 55 q-55 -36 -126 -70 q-27 41 -71 79 q61 25 137 73 q-41 40 -87 67 l77 61 q50 -29 91 -67 q30 27 54 54 l96 -54 ZM717 327 q68 -238 244 -313 q-46 -40 -75 -97 q-146 76 -222 262 q-62 -165 -221 -268 q-33 41 -88 77 q196 127 232 339 l-197 0 l0 110 l206 0 l0 158 l111 0 l0 -158 l114 0 q-35 53 -104 113 l80 56 q81 -61 116 -118 l-72 -51 l100 0 l0 -110 l-224 0 Z" /><glyph glyph-name="" unicode="&#x843d;&#xf918;" d="M266 687 l-209 0 l0 104 l209 0 l0 55 l116 0 l0 -55 l230 0 l0 55 l116 0 l0 -55 l215 0 l0 -104 l-215 0 l0 -66 l-116 0 l0 66 l-230 0 l0 -66 l-116 0 l0 66 ZM163 639 q115 -59 172 -97 l-71 -89 q-65 46 -169 105 l68 81 ZM201 253 q-56 45 -169 110 l70 80 q113 -58 171 -101 l-72 -89 ZM50 6 q92 89 200 226 l71 -86 q-86 -116 -186 -232 l-85 92 ZM846 226 q-116 35 -204 80 q-85 -45 -191 -80 l395 0 ZM751 45 l0 91 l-266 0 l0 -91 l266 0 ZM527 491 q41 -34 111 -70 q60 37 96 70 l-207 0 ZM910 536 q-57 -87 -162 -165 q118 -44 235 -68 q-37 -34 -72 -95 q-18 4 -43 11 l0 -305 l-117 0 l0 40 l-266 0 l0 -40 l-112 0 l0 288 q-6 -1 -20 -5 l-20 -5 q-24 58 -58 94 q131 26 257 80 q-42 27 -85 61 q-46 -46 -90 -78 q-39 45 -82 71 q136 91 221 225 l114 -23 q-10 -15 -32 -45 l237 0 l19 5 l76 -46 Z" /><glyph glyph-name="" unicode="&#x2f8f;&#x884c;&#xfa08;" d="M933 677 l-486 0 l0 113 l486 0 l0 -113 ZM370 800 q-118 -154 -275 -263 q-39 67 -66 97 q142 91 226 213 l115 -47 ZM407 587 q-43 -73 -107 -153 l0 -522 l-119 0 l0 391 q-48 -46 -82 -74 q-50 71 -81 103 q173 119 275 299 l114 -44 ZM958 402 l-137 0 l0 -351 q0 -92 -56 -115 q-47 -20 -195 -20 q-9 64 -36 121 q91 -5 141 -2 q25 0 25 19 l0 348 l-295 0 l0 113 l553 0 l0 -113 Z" /><glyph glyph-name="" unicode="&#x8868;" d="M928 278 q-67 -50 -179 -117 q97 -84 226 -120 q-44 -40 -78 -105 q-289 99 -406 423 q-58 -60 -129 -111 l0 -170 l216 59 q6 -59 20 -106 q-329 -98 -361 -117 q-15 60 -49 105 q50 25 50 79 l0 73 q-77 -40 -137 -61 q-30 51 -77 96 q179 54 319 164 l-284 0 l0 101 l379 0 l0 56 l-287 0 l0 95 l287 0 l0 52 l-336 0 l0 101 l336 0 l0 72 l120 0 l0 -72 l348 0 l0 -101 l-348 0 l0 -52 l309 0 l0 -95 l-309 0 l0 -56 l382 0 l0 -101 l-336 0 q26 -69 77 -136 q87 59 148 117 l99 -73 Z" /><glyph glyph-name="" unicode="&#x8981;" d="M402 213 q-24 -37 -36 -50 q88 -19 176 -41 q56 39 90 91 l-230 0 ZM220 465 l105 0 l0 93 l-105 0 l0 -93 ZM437 652 l113 0 l0 57 l-113 0 l0 -57 ZM662 558 l0 -93 l120 0 l0 93 l-120 0 ZM550 465 l0 93 l-113 0 l0 -93 l113 0 ZM764 213 q-37 -73 -91 -126 q126 -33 256 -78 l-94 -93 q-100 40 -278 92 q-144 -70 -450 -96 q-13 55 -45 102 q205 8 326 41 q-129 32 -214 49 q43 48 88 109 l-215 0 l0 103 l283 0 q28 48 32 56 l-254 0 l0 280 l217 0 l0 57 l-263 0 l0 103 l871 0 l0 -103 l-271 0 l0 -57 l239 0 l0 -280 l-459 0 l50 -12 l-24 -44 l485 0 l0 -103 l-189 0 Z" /><glyph glyph-name="" unicode="&#x89c6;" d="M548 272 l-114 0 l0 530 l493 0 l0 -530 l-120 0 l0 428 l-259 0 l0 -428 ZM345 196 q-23 40 -68 106 l0 -388 l-113 0 l0 331 q-53 -51 -87 -76 q-16 71 -47 124 q145 96 235 280 l-209 0 l0 107 l153 0 q-32 62 -77 114 l93 51 q64 -68 90 -126 l-65 -39 l73 0 l21 5 l62 -44 q-40 -117 -104 -218 q67 -73 117 -134 l-74 -93 ZM845 13 q19 0 26 31 q7 30 9 127 q38 -29 92 -43 q-8 -121 -30 -159 q-25 -43 -98 -43 l-68 0 q-62 0 -87 23 q-27 23 -27 85 l0 122 q-79 -156 -246 -244 q-29 51 -77 87 q170 89 236 234 q45 100 45 249 l0 160 l114 0 l0 -162 q0 -111 -26 -205 l63 0 l0 -227 q0 -35 28 -35 l46 0 Z" /><glyph glyph-name="" unicode="&#x8bad;" d="M254 596 q-53 63 -179 162 l73 79 q147 -110 185 -151 l-79 -90 ZM412 815 l119 0 l0 -346 q0 -375 -108 -554 q-60 45 -117 65 q38 56 66 139 q-184 -161 -210 -200 q-22 48 -61 83 q49 40 49 109 l0 315 l-116 0 l0 114 l230 0 l0 -373 l72 62 q15 -49 41 -93 q35 119 35 333 l0 346 ZM617 764 l110 0 l0 -717 l-110 0 l0 717 ZM935 822 l0 -897 l-119 0 l0 897 l119 0 Z" /><glyph glyph-name="" unicode="&#x8bb0;" d="M268 587 q-41 59 -164 171 l79 74 q129 -108 171 -161 l-86 -84 ZM382 201 q11 -59 36 -105 q-193 -138 -221 -172 q-21 47 -62 86 q50 43 50 110 l0 308 l-145 0 l0 114 l264 0 l0 -395 l78 54 ZM788 43 q39 0 51 28 q12 27 17 127 q39 -28 113 -48 q-11 -130 -45 -175 q-35 -46 -127 -46 l-188 0 q-100 0 -136 34 q-38 34 -38 130 l0 368 l354 0 l0 203 l-375 0 l0 118 l495 0 l0 -482 l-120 0 l0 49 l-231 0 l0 -257 q0 -32 11 -40 q12 -9 53 -9 l166 0 Z" /><glyph glyph-name="" unicode="&#x8d1f;" d="M345 654 q-28 -39 -76 -94 l240 0 q40 55 61 94 l-225 0 ZM180 472 q-28 -25 -56 -47 q-42 55 -90 83 q192 133 288 338 l128 -23 q-22 -41 -42 -74 l226 0 l19 6 l82 -53 q-34 -64 -89 -142 l201 0 l0 -438 l-126 0 l0 335 l-420 0 l0 -335 l-121 0 l0 350 ZM573 393 q-15 -225 -91 -316 q-100 -119 -383 -164 q-16 55 -57 101 q256 34 336 125 q59 66 72 254 l123 0 ZM588 151 q197 -78 353 -158 l-92 -81 q-155 88 -334 163 l73 76 Z" /><glyph glyph-name="" unicode="&#x8d23;" d="M562 197 q0 -91 -74 -152 q-100 -83 -346 -131 q-29 50 -77 93 q227 35 314 94 q58 39 58 99 l0 76 l125 0 l0 -79 ZM716 109 l0 193 l-432 0 l0 -205 l-120 0 l0 305 l677 0 l0 -293 l-125 0 ZM583 133 q225 -60 357 -128 l-58 -98 q-130 72 -354 140 l55 86 ZM949 531 l0 -92 l-898 0 l0 92 l389 0 l0 42 l-285 0 l0 81 l285 0 l0 42 l-331 0 l0 89 l331 0 l0 61 l122 0 l0 -61 l345 0 l0 -89 l-345 0 l0 -42 l301 0 l0 -81 l-301 0 l0 -42 l387 0 Z" /><glyph glyph-name="" unicode="&#x8d44;" d="M275 631 q-80 62 -201 110 l59 80 q131 -47 204 -101 l-62 -89 ZM358 505 q-143 -53 -277 -99 l-36 109 q94 25 293 92 l20 -102 ZM725 111 l0 155 l-443 0 l0 -166 l-117 0 l0 274 l684 0 l0 -263 l-124 0 ZM561 240 q-29 -142 -118 -211 q-107 -83 -355 -118 q-16 54 -53 100 q223 24 313 81 q72 46 97 148 l116 0 ZM575 134 q217 -55 370 -123 l-74 -94 q-157 73 -365 133 l69 84 ZM700 674 l-9 -29 q80 -128 266 -167 q-43 -38 -69 -93 q-152 46 -240 165 q-74 -118 -254 -175 q-21 50 -61 86 q201 56 249 213 l-78 0 q-45 -69 -105 -118 q-36 50 -82 74 q107 81 147 209 l112 -17 l-24 -61 l284 0 l20 5 l87 -21 q-39 -109 -70 -170 l-104 27 q18 45 27 72 l-96 0 Z" /><glyph glyph-name="" unicode="&#x2f9c;&#x8db3;" d="M278 554 l458 0 l0 137 l-458 0 l0 -137 ZM569 48 q66 -11 155 -11 q84 -2 246 1 q-29 -49 -41 -115 l-212 0 q-165 0 -266 37 q-121 44 -194 152 q-55 -129 -137 -196 q-33 45 -84 81 q138 108 166 384 l124 -14 q-9 -60 -24 -119 q44 -109 144 -161 l0 354 l-287 0 l0 364 l704 0 l0 -364 l-294 0 l0 -123 l326 0 l0 -110 l-326 0 l0 -160 Z" /><glyph glyph-name="" unicode="&#x8fc7;" d="M706 564 l-371 0 l0 112 l371 0 l0 164 l121 0 l0 -164 l123 0 l0 -112 l-123 0 l0 -328 q0 -95 -60 -119 q-50 -22 -205 -22 q-9 60 -40 121 q64 -3 156 -3 q28 1 28 24 l0 327 ZM458 521 q104 -121 143 -193 l-102 -62 q-34 71 -136 202 l95 53 ZM203 578 q-44 80 -144 176 l92 62 q112 -102 151 -169 l-99 -69 ZM278 135 q37 -23 58 -35 q78 -45 271 -45 q211 0 367 25 q-34 -79 -37 -132 q-152 -11 -334 -11 q-190 0 -285 52 q-110 56 -104 56 q-33 0 -108 -126 l-84 121 q74 77 139 106 l0 221 l-116 0 l0 111 l233 0 l0 -343 Z" /><glyph glyph-name="" unicode="&#x901a;" d="M473 511 l0 -54 l115 0 l0 54 l-115 0 ZM812 511 l-118 0 l0 -54 l118 0 l0 54 ZM812 318 l0 56 l-118 0 l0 -56 l118 0 ZM588 318 l0 56 l-115 0 l0 -56 l115 0 ZM473 82 l-112 0 l0 515 l218 0 q-88 39 -143 62 l77 63 q54 -20 130 -52 q47 28 84 56 l-357 0 l0 90 l459 0 l24 6 l70 -57 q-83 -79 -181 -139 l52 -27 l-2 -2 l134 0 l0 -412 q0 -68 -41 -89 q-31 -17 -134 -17 q-9 50 -30 93 q32 -1 76 -1 q15 1 15 15 l0 46 l-118 0 l0 -146 l-106 0 l0 146 l-115 0 l0 -150 ZM222 569 q-42 54 -174 171 l80 71 q124 -96 180 -160 l-86 -82 ZM275 115 q43 -29 56 -36 q76 -45 263 -45 q207 0 378 23 q-29 -67 -32 -114 q-192 -10 -349 -10 q-187 0 -275 50 q-90 54 -95 54 q-38 0 -121 -120 l-73 100 q69 71 134 101 l0 238 l-126 0 l0 110 l240 0 l0 -351 Z" /><glyph glyph-name="" unicode="&#x90e8;" d="M203 184 l0 -122 l214 0 l0 122 l-214 0 ZM90 290 l444 0 l0 -371 l-117 0 l0 40 l-214 0 l0 -45 l-113 0 l0 376 ZM227 630 q35 -66 55 -143 l-60 -17 l119 0 q33 75 56 160 l-170 0 ZM516 612 l-31 -73 q-18 -45 -30 -69 l117 0 l0 -108 l-528 0 l0 108 l128 0 q-19 78 -50 140 l81 20 l-134 0 l0 107 l189 0 q-11 40 -32 87 l109 31 q28 -57 48 -118 l169 0 l0 -107 l-117 0 l81 -18 ZM967 753 q-74 -208 -113 -297 q95 -107 95 -234 q0 -110 -53 -147 q-24 -18 -66 -24 q-37 -5 -77 -2 q-4 66 -29 110 q22 -2 56 -2 q21 0 37 10 q23 14 23 69 q0 104 -97 206 q29 75 82 251 l-112 0 l0 -776 l-104 0 l0 883 l258 0 l17 4 l83 -51 Z" /><glyph glyph-name="" unicode="&#x95f4;" d="M73 607 l124 0 l0 -693 l-124 0 l0 693 ZM181 841 q90 -84 124 -151 l-100 -64 q-35 71 -117 157 l93 58 ZM404 187 l193 0 l0 95 l-193 0 l0 -95 ZM404 378 l193 0 l0 94 l-193 0 l0 -94 ZM298 567 l410 0 l0 -476 l-410 0 l0 476 ZM936 42 q0 -77 -43 -102 q-37 -20 -143 -20 q-9 53 -34 106 q16 -1 80 -1 q16 0 16 18 l0 644 l-472 0 l0 111 l596 0 l0 -756 Z" /><glyph glyph-name="" unicode="&#x95fb;" d="M70 607 l121 0 l0 -693 l-121 0 l0 693 ZM174 842 q91 -79 129 -141 l-93 -66 q-38 68 -122 148 l86 59 ZM402 186 l188 13 l0 54 l-188 0 l0 -67 ZM402 529 l0 -53 l188 0 l0 53 l-188 0 ZM402 336 l188 0 l0 57 l-188 0 l0 -57 ZM696 114 l0 -113 l-106 0 l0 105 l-359 -28 l-10 97 q10 0 36 2 l39 2 l0 350 l-54 0 l0 91 l510 0 l0 -91 l-56 0 l0 -322 l76 5 l1 -91 l-77 -7 ZM934 41 q0 -79 -44 -104 q-38 -21 -150 -21 q-7 55 -33 108 q37 -2 91 -2 q18 1 18 19 l0 663 l-472 0 l0 106 l590 0 l0 -769 Z" /><glyph glyph-name="" unicode="&#x9632;" d="M410 762 q-57 -186 -92 -278 q76 -94 76 -206 q0 -97 -47 -131 q-22 -17 -58 -22 q-19 -3 -67 -3 q-2 63 -27 107 q25 -3 44 -1 q18 0 30 8 q17 13 17 58 q0 94 -72 178 q25 72 60 226 l-88 0 l0 -785 l-111 0 l0 891 l237 0 l17 5 l81 -47 ZM634 577 q-5 -112 -6 -119 l275 0 l-1 -50 q-14 -398 -50 -444 q-29 -37 -79 -45 q-38 -7 -129 -3 q-4 63 -36 118 q54 -6 105 -6 q23 0 34 15 q26 29 34 307 l-163 0 q-41 -312 -262 -434 q-27 52 -76 92 q146 77 196 230 q35 104 40 339 l-128 0 l0 110 l243 0 q-12 57 -40 139 l109 26 q34 -84 47 -141 l-82 -24 l292 0 l0 -110 l-323 0 Z" /><glyph glyph-name="" unicode="&#x9645;" d="M905 674 l-439 0 l0 111 l439 0 l0 -111 ZM418 767 q-53 -158 -94 -262 q79 -96 79 -208 q0 -97 -50 -131 q-23 -17 -61 -22 q-19 -3 -69 -3 q-2 59 -29 103 q36 -2 46 -1 q17 0 30 7 q18 14 18 60 q0 97 -74 183 q30 91 60 208 l-93 0 l0 -787 l-113 0 l0 893 l246 0 l19 4 l85 -44 ZM571 320 q-45 -188 -130 -316 q-45 37 -94 61 q78 103 117 279 l107 -24 ZM737 436 l0 -386 q0 -88 -46 -113 q-40 -22 -153 -22 q-7 63 -34 123 q20 -1 95 -1 q17 0 17 15 l0 384 l-195 0 l0 111 l539 0 l0 -111 l-223 0 ZM869 349 q82 -184 102 -311 l-107 -40 q-18 134 -93 318 l98 33 Z" /><glyph glyph-name="" unicode="&#x9884;" d="M637 632 q7 32 12 72 l-193 0 l0 105 l513 0 l0 -105 l-193 0 l-24 -72 l178 0 l0 -475 l-116 0 l0 369 l-216 0 l0 -373 l-110 0 l0 479 l149 0 ZM318 247 q15 44 34 125 l-60 0 l0 -331 q0 -83 -47 -105 q-42 -21 -153 -21 q-6 55 -36 114 q43 -1 103 -1 q18 1 18 15 l0 329 l-149 0 l0 105 l202 0 q-107 70 -160 102 l61 78 l80 -47 q36 38 74 92 l-233 0 l0 103 l307 0 l20 6 l71 -51 q-67 -115 -156 -200 q41 -26 73 -49 l-26 -34 l47 0 l16 4 l72 -17 q-38 -150 -70 -236 l-88 19 ZM761 293 q0 -266 -286 -373 q-30 48 -74 82 q249 83 249 293 l0 182 l111 0 l0 -184 ZM799 139 q127 -100 176 -150 l-83 -80 q-32 39 -170 160 l77 70 Z" /><glyph glyph-name="" unicode="&#x9886;" d="M646 609 q24 72 28 86 l-176 0 l0 104 l459 0 l0 -104 l-174 0 l-35 -86 l188 0 l0 -464 l-110 0 l0 379 l-200 0 l0 -383 l-105 0 l0 468 l125 0 ZM443 475 q-44 71 -159 190 q-81 -136 -183 -224 q-31 40 -79 78 q154 121 236 331 l102 -30 q-12 -31 -27 -63 q137 -135 183 -199 l-73 -83 ZM271 581 q69 -64 104 -111 l-76 -54 q-37 54 -103 120 l75 45 ZM477 367 q-49 -125 -159 -291 q47 -47 75 -86 l-85 -70 q-48 73 -201 223 l79 59 q28 -26 59 -53 q50 78 89 158 l-230 0 l0 101 l279 0 l19 6 l75 -47 ZM786 144 q129 -102 182 -161 l-76 -71 q-41 50 -167 161 q-56 -114 -220 -167 q-19 46 -57 83 q157 47 199 155 q30 79 31 345 l97 0 q0 -285 -40 -390 l51 45 Z" /><glyph glyph-name="" unicode="&#x9a8c;" d="M289 134 l-247 -58 l-19 92 q56 10 257 54 l9 -88 ZM810 542 q-79 70 -141 142 q-49 -68 -124 -142 l265 0 ZM529 527 q-55 -48 -99 -78 q-29 51 -68 96 q-6 -87 -14 -159 l77 0 l-2 -43 q-16 -336 -55 -380 q-26 -32 -76 -38 q-39 -4 -122 -1 q-2 52 -29 95 q55 -5 104 -5 q23 0 35 12 q27 30 39 267 l-258 0 q18 139 26 351 l101 -6 q-6 -112 -18 -253 l78 0 q15 125 26 326 l-226 0 l0 100 l330 0 q-7 -135 -17 -266 q194 118 290 314 l103 -36 q-8 -16 -26 -48 q116 -132 254 -206 q-29 -44 -54 -118 q-48 32 -91 68 l0 -77 l-308 0 l0 85 ZM671 141 q-7 87 -37 236 l90 13 q33 -137 42 -235 l-95 -14 ZM514 113 q-9 86 -52 236 l90 24 q40 -117 58 -233 l-96 -27 ZM957 361 q-71 -199 -121 -304 l119 0 l0 -100 l-518 0 l0 100 l299 0 q76 165 113 327 l108 -23 Z" /><glyph glyph-name="" unicode="&#x2fbc;&#x9ad8;" d="M606 145 l-220 0 l0 -57 l220 0 l0 57 ZM917 22 q0 -68 -51 -88 q-41 -14 -159 -12 q-8 34 -35 84 l-286 0 l0 -42 l-110 0 l0 264 l435 0 l0 -222 l-14 0 q62 -2 80 0 q20 0 20 17 l0 242 l-597 0 l0 -351 l-115 0 l0 447 l832 0 l0 -339 ZM696 536 l-387 0 l0 -55 l387 0 l0 55 ZM821 402 l-631 0 l0 214 l631 0 l0 -214 ZM940 754 l0 -100 l-883 0 l0 100 l385 0 l-24 70 l123 30 q6 -17 19 -50 l20 -50 l360 0 Z" /><glyph glyph-name="" unicode="&#xfe43;" d="M784 87 l-473 0 l0 178 l661 0 l0 -357 l-188 0 l0 179 ZM928 221 l-573 0 l0 -90 l473 0 l0 -179 l100 0 l0 269 Z" /><glyph glyph-name="" unicode="&#xfe44;" d="M216 673 l473 0 l0 -178 l-661 0 l0 357 l188 0 l0 -179 ZM72 539 l573 0 l0 90 l-473 0 l0 179 l-100 0 l0 -269 Z" /><glyph glyph-name="" unicode="&#xff08;" d="M860 -100 q-197 193 -197 480 q0 287 197 480 l95 -42 q-179 -193 -179 -438 q0 -245 179 -438 l-95 -42 Z" /><glyph glyph-name="" unicode="&#xff09;" d="M140 860 q197 -193 197 -480 q0 -287 -197 -480 l-95 42 q179 193 179 438 q0 245 -179 438 l95 42 Z" /><glyph glyph-name="" unicode="&#xff0c;" d="M162 -57 q120 38 129 121 q-3 -1 -11 -1 q-39 0 -66 23 q-29 25 -29 66 q0 41 29 66 q28 24 69 24 q108 0 108 -137 q0 -86 -52 -150 q-52 -65 -145 -93 l-32 81 Z" /><glyph glyph-name="" unicode="&#xffe5;" d="M427 154 l-195 0 l0 74 l195 0 l0 65 l-195 0 l0 74 l161 0 l-235 371 l173 0 l91 -180 q37 -76 77 -156 l5 0 q21 38 77 156 l90 180 l170 0 l-236 -371 l162 0 l0 -74 l-194 0 l0 -65 l194 0 l0 -74 l-194 0 l0 -154 l-146 0 l0 154 Z" /><glyph glyph-name="" unicode="&#xff01;" d="M164 599 l-5 149 l183 0 l-5 -149 l-35 -342 l-103 0 l-35 342 ZM250 -9 q-45 0 -74 27 q-30 28 -30 71 q0 43 30 71 q30 28 74 28 q44 0 74 -28 q30 -28 30 -71 q0 -43 -30 -71 q-29 -27 -74 -27 Z" /><glyph glyph-name="" unicode="&#xff1a;" d="M250 469 q-40 0 -67 27 q-28 27 -28 67 q0 41 28 68 q27 27 67 27 q40 0 67 -27 q28 -27 28 -68 q0 -40 -28 -67 q-27 -27 -67 -27 ZM250 -8 q-40 0 -67 27 q-28 27 -28 67 q0 41 28 68 q27 27 67 27 q40 0 67 -27 q28 -27 28 -68 q0 -40 -28 -67 q-27 -27 -67 -27 Z" /><glyph glyph-name="" unicode="&#xff1b;" d="M250 469 q-40 0 -67 27 q-28 27 -28 67 q0 41 28 68 q27 27 67 27 q40 0 67 -27 q28 -27 28 -68 q0 -40 -28 -67 q-27 -27 -67 -27 ZM134 -96 q128 49 131 149 q-4 -1 -12 -1 q-39 0 -66 24 q-29 25 -29 67 q0 41 29 66 q27 24 68 24 q109 0 109 -150 q0 -195 -198 -259 l-32 80 Z" /><glyph glyph-name="" unicode="&#xff1f;" d="M174 257 q-12 90 70 172 q86 86 86 126 q0 86 -91 86 q-68 0 -125 -63 l-82 76 q93 106 223 106 q97 0 155 -48 q61 -52 61 -144 q0 -75 -90 -159 q-86 -80 -78 -152 l-129 0 ZM135 90 q0 43 30 71 q29 27 74 27 q45 0 75 -27 q29 -28 29 -71 q0 -43 -29 -71 q-30 -28 -75 -28 q-45 0 -74 28 q-30 28 -30 71 Z" /><glyph glyph-name="" unicode="&#x2018;" d="M965 807 q-42 -19 -69 -56 q-23 -33 -23 -59 q10 5 22 5 q30 0 50 -21 q19 -21 19 -52 q0 -31 -20 -52 q-22 -22 -58 -22 q-37 0 -63 31 q-25 31 -25 76 q0 139 138 203 l29 -53 Z" /><glyph glyph-name="" unicode="&#x201c;" d="M771 807 q-42 -19 -68 -56 q-23 -33 -23 -59 q10 5 21 5 q31 0 51 -21 q19 -21 19 -52 q0 -31 -21 -52 q-21 -22 -57 -22 q-37 0 -63 31 q-25 31 -25 76 q0 139 138 203 l28 -53 ZM975 807 q-42 -19 -69 -56 q-23 -33 -23 -59 q10 5 22 5 q30 0 50 -21 q19 -21 19 -52 q0 -31 -20 -52 q-22 -22 -58 -22 q-37 0 -63 31 q-25 31 -25 76 q0 139 138 203 l29 -53 Z" /><glyph glyph-name="" unicode="&#x201d;" d="M229 595 q42 20 68 57 q23 32 23 59 q-7 -5 -21 -5 q-31 0 -51 21 q-19 21 -19 52 q0 31 21 52 q22 22 57 22 q37 0 63 -31 q25 -31 25 -77 q0 -140 -138 -202 l-28 52 ZM25 595 q42 20 69 57 q23 32 23 59 q-7 -5 -22 -5 q-30 0 -50 21 q-19 21 -19 52 q0 31 20 52 q22 22 58 22 q37 0 63 -31 q25 -31 25 -77 q0 -140 -138 -202 l-29 52 Z" /></font>
</defs>
</svg>
