<?xml version="1.0" standalone="no"?><!DOCTYPE svg PUBLIC "-//W3C//DTD SVG 1.1//EN" "http://www.w3.org/Graphics/SVG/1.1/DTD/svg11.dtd" ><svg xmlns="http://www.w3.org/2000/svg"><metadata></metadata><defs><font id="Hanyi HYPingAnXingJ Regular v5.00" horiz-adv-x="1000"><font-face font-family="HYPingAnXingJ" font-weight="400" font-stretch="normal" units-per-em="1000" panose-1="0 2 6 0 4 1 1 1 1 1" ascent="856" descent="-266" x-height="1" bbox="-26 -198 978 748" underline-thickness="50" underline-position="-266" unicode-range="U+0021-ffe5" /><missing-glyph horiz-adv-x="1000"  /><glyph glyph-name="" unicode="!" d="M137 145 q-2 0 -5.5 2.5 q-3.5 2.5 -3.5 10.5 l-9 309 q0 8 1.5 15.5 q1.5 7.5 8.5 9.5 q10 1 14 0 q6 -2 8 -9 q2 -7 2 -16 l-7 -309 q0 -9 -3.5 -11 q-3.5 -2 -5.5 -2 ZM112 40 q0 11 7 17.5 q7 6.5 18 6.5 q13 0 20 -6.5 q7 -6.5 7 -17.5 q0 -25 -27 -25 q-11 0 -18 7 q-7 7 -7 18 Z" /><glyph glyph-name="" unicode="&quot;" d="M98 385 q-5 0 -7 5 q-3 30 -4.5 49 q-1.5 19 -2.5 30 q-1 12 -1 18 q0 4 2 8.5 q2 4.5 10 4.5 q8 0 11 -4 q3 -4 3 -8 q-4 -41 -5 -61 q-1 -20 -1 -28 q0 -8 -1 -9 q-3 -5 -4 -5 ZM176 385 q-5 0 -5 5 q-3 34 -4.5 53.5 q-1.5 19.5 -2.5 29.5 q-1 10 -1 12.5 q0 2.5 0 2.5 q0 3 1.5 7.5 q1.5 4.5 9.5 4.5 q8 0 10.5 -4 q2.5 -4 2.5 -8 q-4 -43 -4.5 -63.5 q-0.5 -20.5 -0.5 -27.5 q0 -5 -1 -7 q-3 -5 -5 -5 Z" /><glyph glyph-name="" unicode="#" d="M173 368 l24 101 q2 7 5 7 l20 0 l0 -4 l-25 -103 l100 4 l23 96 q2 7 5 7 l20 0 l0 -4 l-24 -98 l36 2 q5 1 7 -3.5 q2 -4.5 1 -6.5 q0 -2 -1 -5 q-1 -3 -1 -5 l0 1 q-3 -10 -8 -10 l-41 -2 l-40 -171 l40 2 q5 0 6.5 -4 q1.5 -4 1.5 -6 q0 -2 -0.5 -2.5 q-0.5 -0.5 -0.5 -2.5 l1 1 l-1 -3 q-1 -2 -1 -5 q-4 -8 -8 -8 l-46 -2 l-29 -124 q-2 -6 -4 -6 l-23 0 l1 2 q0 2 2 6 l29 121 l-62 -3 l-38 -2 l-28 -118 q0 -6 -4 -6 l-22 0 q-2 0 2 8 l27 115 q-14 -1 -24.5 -1 q-10.5 0 -15.5 0 q-2 0 -2 3.5 q0 3.5 0 5.5 q0 7 1 10 q2 2 4.5 5.5 q2.5 3.5 6.5 5.5 l37 2 q10 43 20.5 85.5 q10.5 42.5 20.5 84.5 q-15 -1 -26 -1 q-11 0 -16 0 q-2 0 -2.5 3 q-0.5 3 -0.5 6 l0 5 q0 2 0.5 2.5 q0.5 0.5 0.5 2.5 q4 10 11 11 l-1 0 l42 1 ZM190 339 l-41 -170 l100 4 l41 171 l-2 0 l-98 -5 Z" /><glyph glyph-name="" unicode="$" d="M71 80 q2 5 4.5 4.5 q2.5 -0.5 4.5 -2.5 q29 -20 59.5 -26.5 q30.5 -6.5 68.5 -6.5 l10 0 q0 4 0.5 7.5 q0.5 3.5 0.5 8.5 q0 35 1 64 q1 29 1 39 l-1 95 l-12 5 q-14 5 -27.5 9 q-13.5 4 -24.5 9 q-37 13 -58 39 q-21 26 -21 58 q0 27 11.5 49.5 q11.5 22.5 30.5 34.5 q20 13 42.5 21 q22.5 8 57.5 10 q-1 17 -1 30.5 q0 13.5 0 20.5 q0 8 6 10 l5 0 q11 -2 11 -10 q0 -4 -0.5 -18.5 q-0.5 -14.5 -0.5 -31.5 l10 0 q26 0 49.5 -7 q23.5 -7 44.5 -18 q4 -3 4 -12 q0 -4 -2.5 -9.5 q-2.5 -5.5 -4.5 -10.5 l-2 -2 q-3 -3 -6 2 q-18 15 -39 23.5 q-21 8.5 -53 8.5 l-1 0 l0 -15 l0 -177 q29 -11 56.5 -23 q27.5 -12 38.5 -21 q20 -15 31.5 -34 q11.5 -19 11.5 -45 q0 -27 -11 -50.5 q-11 -23.5 -30 -41 q-19 -17.5 -44 -29 q-25 -11.5 -52 -15.5 q0 -25 1 -44 q1 -19 1 -27 q0 -9 -6 -11 q-2 0 -2.5 -0.5 q-0.5 -0.5 -1.5 -0.5 q-3 -1 -10 0 q-4 0 -4 10 q0 8 -0.5 27.5 q-0.5 19.5 0.5 43.5 l-8 0 q-41 0 -76 6 q-35 6 -65 22 q-6 4 -5 10 q1 4 3 9.5 q2 5.5 4 11.5 ZM240 59 l0 -8 q29 4 50.5 16 q21.5 12 35 27 q13.5 15 20 32 q6.5 17 6.5 32 q0 24 -12 39 q-12 15 -33 29 q-13 8 -30.5 15.5 q-17.5 7.5 -37.5 15.5 l0 -89 l1 -109 ZM214 292 q4 -2 6 -2 l-1 168 l0 15 q-26 -2 -45.5 -7.5 q-19.5 -5.5 -33.5 -13.5 q-16 -9 -28 -26 q-12 -17 -12 -33 q0 -19 7.5 -33.5 q7.5 -14.5 20 -25 q12.5 -10.5 28.5 -18.5 q16 -8 32 -14 l26 -10 Z" /><glyph glyph-name="" unicode="%" d="M449 126 q0 23 7.5 43.5 q7.5 20.5 24.5 35.5 q34 33 84 33 q24 0 46.5 -8 q22.5 -8 39.5 -25 q16 -14 23.5 -35 q7.5 -21 7.5 -44 q0 -23 -7 -43.5 q-7 -20.5 -24 -35.5 q-17 -16 -39.5 -24 q-22.5 -8 -46.5 -8 q-23 0 -45 8 q-22 8 -39 24 q-17 16 -24.5 36 q-7.5 20 -7.5 43 ZM45 387 q0 22 7.5 42.5 q7.5 20.5 23.5 36.5 q17 17 39 24.5 q22 7.5 47 7.5 q23 0 45.5 -7.5 q22.5 -7.5 38.5 -24.5 q17 -15 24.5 -35.5 q7.5 -20.5 7.5 -43.5 q0 -23 -7.5 -43.5 q-7.5 -20.5 -24.5 -35.5 q-16 -16 -38.5 -24 q-22.5 -8 -45.5 -8 q-52 0 -86 32 q-16 15 -23.5 35.5 q-7.5 20.5 -7.5 43.5 ZM475 126 q0 -15 3 -28 q3 -13 14 -27 q11 -16 31 -26 q20 -10 42 -10 q26 0 45 10 q19 10 30 26 q10 14 13.5 27.5 q3.5 13.5 3.5 27.5 q0 16 -3 28 q-3 12 -14 27 q-11 17 -30 27 q-19 10 -45 10 q-25 0 -43.5 -10 q-18.5 -10 -29.5 -27 q-17 -27 -17 -55 ZM70 387 q0 -16 4.5 -28.5 q4.5 -12.5 13.5 -26.5 q11 -17 31 -26.5 q20 -9.5 43 -9.5 q24 0 43 9.5 q19 9.5 30 26.5 q9 14 13.5 26.5 q4.5 12.5 4.5 28.5 q0 27 -18 55 q-11 16 -29.5 26.5 q-18.5 10.5 -43.5 10.5 q-26 0 -44.5 -10.5 q-18.5 -10.5 -29.5 -26.5 q-18 -28 -18 -55 ZM496 512 q2 3 6 3 l17 0 q4 0 3.5 -2 q-0.5 -2 -0.5 -3 l-294 -504 q-4 -8 -10 -8 l-17 0 q-2 0 -3 1.5 q-1 1.5 1 4.5 l297 508 Z" /><glyph glyph-name="" unicode="&amp;" d="M472 189 q-13 -15 -30.5 -35 q-17.5 -20 -32.5 -34 q15 -16 31 -31.5 q16 -15.5 30 -27.5 l26 -25 q3 -2 4.5 -5 q1.5 -3 -1.5 -5 l-44 0 q-5 0 -13 8 l-61 60 q-19 -17 -38.5 -30.5 q-19.5 -13.5 -39.5 -24.5 l1 0 q-47 -22 -102 -22 q-20 0 -44.5 5 q-24.5 5 -46 17.5 q-21.5 12.5 -36 34.5 q-14.5 22 -14.5 56 q0 24 14 46 q14 22 35.5 42.5 q21.5 20.5 48 38.5 q26.5 18 50.5 34 q-4 5 -7.5 10.5 q-3.5 5.5 -6.5 10.5 q-11 14 -25 38 q-14 24 -14 57 q0 38 31.5 66 q31.5 28 84.5 28 q35 0 61.5 -18.5 q26.5 -18.5 26.5 -62.5 q0 -20 -11 -38 q-11 -18 -27.5 -33.5 q-16.5 -15.5 -36.5 -29 q-20 -13.5 -37 -25.5 q8 -10 21 -23.5 q13 -13.5 27 -27.5 q20 -21 38.5 -41.5 q18.5 -20.5 27.5 -31.5 q5 -7 13.5 -16.5 q8.5 -9.5 19.5 -20.5 q18 18 37 40.5 q19 22.5 32 38.5 q11 14 18 23 q7 9 16 23 q3 4 6 9 q3 5 8 0 l7 -8 q4 -5 -1 -10 q-10 -14 -19.5 -27 q-9.5 -13 -26.5 -33 ZM200 46 q55 0 94.5 18.5 q39.5 18.5 73.5 45.5 l-27 30 q-3 3 -7.5 8 q-4.5 5 -17 19 q-12.5 14 -35 39.5 q-22.5 25.5 -61.5 69.5 l-1 -1 q-20 -14 -42 -31 q-22 -17 -40 -35.5 q-18 -18.5 -30 -38 q-12 -19.5 -13 -40.5 q-2 -33 25 -58.5 q27 -25.5 81 -25.5 ZM182 417 q0 -29 17 -58 q17 -29 37 -52 q18 12 36.5 26 q18.5 14 33.5 29 q15 15 24.5 29.5 q9.5 14.5 9.5 27.5 q0 31 -18.5 48 q-18.5 17 -53.5 17 q-36 0 -61 -20 q-25 -20 -25 -47 Z" /><glyph glyph-name="" unicode="&#39;" d="M115 385 q-5 0 -7 5 q-3 34 -4.5 53.5 q-1.5 19.5 -2.5 29.5 q-1 10 -1 12.5 q0 2.5 0 2.5 q0 3 2 7.5 q2 4.5 10 4.5 q10 0 13 -3.5 q3 -3.5 3 -7.5 q-5 -50 -6 -69.5 q-1 -19.5 -1 -24.5 l0 -5 q0 -2 -2 -3.5 q-2 -1.5 -4 -1.5 Z" /><glyph glyph-name="" unicode="(" d="M185 493 q1 -1 1 -3 q0 -1 -1 -2 q-15 -15 -28.5 -35 q-13.5 -20 -24.5 -41.5 q-11 -21.5 -20.5 -43 q-9.5 -21.5 -16.5 -39.5 q-8 -19 -13.5 -42 q-5.5 -23 -8.5 -46 q-3 -23 -4.5 -45 q-1.5 -22 -1.5 -39 q0 -24 3.5 -52.5 q3.5 -28.5 9.5 -56 q6 -27.5 12.5 -50.5 q6.5 -23 12.5 -37 q6 -14 15 -31 q9 -17 19.5 -34 q10.5 -17 23 -33.5 q12.5 -16.5 25.5 -29.5 q2 -2 1 -5 q-1 -3 -4 -5 q-2 -1 -5 -1.5 q-3 -0.5 -7 2.5 q-35 28 -63 70.5 q-28 42.5 -47 82.5 q-9 18 -15.5 41 q-6.5 23 -10.5 47 q-4 24 -6 48 q-2 24 -2 44 q0 16 2.5 36 q2.5 20 6 40.5 q3.5 20.5 8.5 39.5 q5 19 11 34 q9 21 21.5 46.5 q12.5 25.5 27 51 q14.5 25.5 30.5 48.5 q16 23 33 38 q4 3 9 3.5 q5 0.5 7 -1.5 Z" /><glyph glyph-name="" unicode=")" d="M34 493 q2 2 7 1.5 q5 -0.5 9 -3.5 q17 -15 33 -38 q16 -23 30.5 -48.5 q14.5 -25.5 27 -51 q12.5 -25.5 21.5 -46.5 q6 -15 11 -34 q5 -19 8.5 -39.5 q3.5 -20.5 6 -40.5 q2.5 -20 2.5 -36 q0 -20 -2 -44 q-2 -24 -6 -48 q-4 -24 -10.5 -47 q-6.5 -23 -15.5 -41 q-19 -40 -47 -82.5 q-28 -42.5 -63 -70.5 q-4 -3 -7 -2.5 q-3 0.5 -5 1.5 q-3 2 -4 5 q-1 3 1 5 q13 13 25.5 29.5 q12.5 16.5 23 33.5 q10.5 17 19.5 34 q9 17 15 31 q6 14 12.5 37 q6.5 23 12.5 50.5 q6 27.5 9.5 56 q3.5 28.5 3.5 52.5 q0 17 -1.5 39 q-1.5 22 -4.5 45 q-3 23 -8.5 46 q-5.5 23 -13.5 42 q-8 18 -17 39.5 q-9 21.5 -20 43 q-11 21.5 -24.5 41.5 q-13.5 20 -28.5 35 q-1 1 -1 2 q0 2 1 3 Z" /><glyph glyph-name="" unicode="*" d="M184 420 l-34 -60 q-2 -5 -10 -8 q-8 -3 -16 4 q-8 6 -7 14.5 q1 8.5 8 13.5 q3 1 8.5 5.5 q5.5 4.5 13 10.5 q7.5 6 15 13 q7.5 7 14.5 13 l-69 4 q-6 -1 -12 4.5 q-6 5.5 -4 16.5 q2 11 10 13 q8 2 14 -1 q7 -4 27 -12.5 q20 -8.5 37 -15.5 q-3 18 -5.5 38 q-2.5 20 -4.5 27 q-2 7 2 14.5 q4 7.5 15 7.5 q11 0 15 -7.5 q4 -7.5 2 -14.5 l-12 -64 q17 6 37 14.5 q20 8.5 26 12.5 q6 3 14 1 q8 -2 10 -13 q2 -11 -3 -16.5 q-5 -5.5 -13 -4.5 l-70 -4 q14 -13 30.5 -26.5 q16.5 -13.5 22.5 -15.5 q6 -5 7.5 -13.5 q1.5 -8.5 -6.5 -14.5 q-9 -7 -16.5 -4 q-7.5 3 -10.5 8 l-35 60 Z" /><glyph glyph-name="" unicode="+" d="M55 270 q0 6 5 6 l177 0 l0 156 q0 6 3 6 l15 0 q3 0 3 -6 l0 -156 l181 0 q3 0 3 -6 l0 -13 q0 -7 -4 -7 l-180 0 l0 -156 q0 -6 -3 -6 l-15 0 q-3 0 -3 6 l0 156 l-177 0 q-5 0 -5 7 l0 13 Z" /><glyph glyph-name="" unicode="," d="M130 31 q-1 -15 -8 -30.5 q-7 -15.5 -17.5 -29.5 q-10.5 -14 -23.5 -26 q-13 -12 -25 -20 q-5 -2 -8.5 -1 q-3.5 1 0.5 6 l0 -1 q23 23 32.5 40.5 q9.5 17.5 11.5 25.5 q3 11 0.5 21 q-2.5 10 -16.5 18 q-15 6 -5 24 q2 4 9 5.5 q7 1.5 15 0.5 q16 -2 26 -9.5 q10 -7.5 9 -23.5 Z" /><glyph glyph-name="" unicode="-" d="M51 270 q0 6 3 6 l166 0 q2 0 2 -6 l0 -14 q0 -6 -2 -6 l-166 0 q-3 0 -3 6 l0 14 Z" /><glyph glyph-name="" unicode="." d="M79 43 q0 13 8.5 20.5 q8.5 7.5 22.5 7.5 q14 0 23.5 -7.5 q9.5 -7.5 9.5 -20.5 q0 -13 -9.5 -21 q-9.5 -8 -23.5 -8 q-14 0 -22.5 8 q-8.5 8 -8.5 21 Z" /><glyph glyph-name="" unicode="/" d="M226 500 q2 3 6 3 l17 0 q4 0 3.5 -2 q-0.5 -2 -0.5 -3 l-201 -486 q-4 -8 -10 -8 l-17 0 q-2 0 -3 1.5 q-1 1.5 1 4.5 l204 490 Z" /><glyph glyph-name="" unicode="0" d="M25 252 q0 44 10.5 89.5 q10.5 45.5 33.5 80.5 q23 32 57 52 q34 20 76 20 q90 0 137 -72 q23 -34 31.5 -79.5 q8.5 -45.5 8.5 -90.5 q0 -45 -9.5 -89.5 q-9.5 -44.5 -35.5 -80.5 q-23 -34 -55.5 -52.5 q-32.5 -18.5 -76.5 -18.5 q-91 0 -137 70 q-23 37 -31.5 81 q-8.5 44 -8.5 90 ZM60 252 q0 -45 8.5 -89.5 q8.5 -44.5 31.5 -80.5 q17 -25 42 -38.5 q25 -13.5 60 -13.5 q32 0 57 11.5 q25 11.5 45 41.5 q40 62 40 169 q-3 109 -40 169 q-19 31 -44 42 q-25 11 -58 11 q-31 0 -58.5 -12 q-27.5 -12 -46.5 -43 q-37 -58 -37 -167 Z" /><glyph glyph-name="" unicode="1" d="M219 451 q-18 -8 -42.5 -19.5 q-24.5 -11.5 -42.5 -20.5 l-11 -5 q-2 -2 -3 0 q-1 0 -2 1 l-7 12 q-4 4 -1 6 l77 32 l64 29 q0 -9 -0.5 -25 q-0.5 -16 -0.5 -36 q0 -27 -0.5 -58.5 q-0.5 -31.5 -1.5 -57.5 l0 -70 q0 -21 0.5 -49.5 q0.5 -28.5 1 -59.5 q0.5 -31 1 -60 q0.5 -29 0.5 -51 q0 -2 0 -3.5 q0 -1.5 -3 -2.5 q-6 -1 -14 -1 q-8 0 -13 0 q-3 0 -3 5 l0 85 q0 20 0.5 41 q0.5 21 0.5 46 l0 262 Z" /><glyph glyph-name="" unicode="2" d="M73 425 q-4 10 0 14 q23 23 58 39 q35 16 70 16 q66 0 98.5 -31.5 q32.5 -31.5 32.5 -86.5 q0 -38 -18.5 -76 q-18.5 -38 -44.5 -71.5 q-26 -33.5 -53 -60.5 q-27 -27 -44 -42 l-34 -31 l-45 -39 l160 0 l36 0 q15 0 30.5 0.5 q15.5 0.5 24.5 0.5 q2 0 2 -5 q0 -5 0 -9.5 q0 -4.5 -2 -9.5 q-2 -6 -4 -6 q-1 0 -6.5 0 q-5.5 0 -13 0.5 q-7.5 0.5 -15 0.5 q-7.5 0 -13.5 0 q-11 1 -28 1 q-17 0 -25 0 q-23 0 -37 0.5 q-14 0.5 -25.5 0.5 q-11.5 0 -24.5 -0.5 q-13 -0.5 -34 -0.5 l-76 0 q-4 0 -3 5 q1 5 7 11 q44 38 71.5 62.5 q27.5 24.5 48.5 44.5 q22 21 45.5 45.5 q23.5 24.5 43 52 q19.5 27.5 32.5 58 q13 30.5 13 63.5 q0 46 -23.5 74.5 q-23.5 28.5 -75.5 28.5 q-42 0 -66 -15.5 q-24 -15.5 -40 -32.5 l-10 -9 q-2 -2 -4.5 -1.5 q-2.5 0.5 -2.5 1.5 q-2 2 -3 4 q-1 2 -2 4 Z" /><glyph glyph-name="" unicode="3" d="M83 421 q-1 -1 -2 -1 q-4 0 -4 1 q-5 5 -7 10 q-3 10 0 13 q7 7 20 16 q13 9 30 16.5 q17 7.5 37 12.5 q20 5 41 5 q43 0 70 -10.5 q27 -10.5 42 -26.5 q15 -16 20.5 -33.5 q5.5 -17.5 5.5 -30.5 q0 -26 -10 -45.5 q-10 -19.5 -26 -34.5 q-16 -15 -36 -25.5 q-20 -10.5 -39 -16.5 q22 -2 45 -8.5 q23 -6.5 42.5 -20.5 q19.5 -14 32 -35.5 q12.5 -21.5 12.5 -52.5 q0 -39 -16 -66.5 q-16 -27.5 -41 -44.5 q-25 -17 -57 -24.5 q-32 -7.5 -63 -7.5 q-45 0 -81.5 13.5 q-36.5 13.5 -54.5 31.5 q-2 2 -2.5 8 q-0.5 6 0.5 10 q1 5 3 8.5 q2 3.5 4 1.5 q21 -17 53 -35 q32 -18 82 -18 q27 0 52 9 q25 9 43.5 25 q18.5 16 29.5 37.5 q11 21.5 11 46.5 q0 33 -11.5 52.5 q-11.5 19.5 -27 31 q-15.5 11.5 -31.5 15.5 q-16 4 -25 6 q-14 2 -32 3 q-18 1 -35 1 l-17 0 q-4 0 -5 2 q-2 3 -2 8 q0 5 0 7 q0 3 4 3 l20 0 q15 0 33 2 q18 2 30 7 q15 7 29.5 16 q14.5 9 26 21.5 q11.5 12.5 18.5 28.5 q7 16 7 36 q0 41 -30.5 63 q-30.5 22 -75.5 22 q-21 0 -39.5 -6 q-18.5 -6 -32.5 -14 q-14 -8 -24.5 -17.5 q-10.5 -9.5 -16.5 -15.5 Z" /><glyph glyph-name="" unicode="4" d="M24 151 q-10 0 -7 9 q3 9 8 14 q11 14 33 41 q22 27 47.5 59.5 q25.5 32.5 53 67 q27.5 34.5 51 64 q23.5 29.5 40 50 q16.5 20.5 20.5 26.5 q6 6 11 6 l20 0 q3 0 4 -2.5 q1 -2.5 1 -4.5 q0 -13 -0.5 -29.5 q-0.5 -16.5 -1.5 -34.5 l0 -239 l77 0 q4 0 4 -4 q0 -8 -2 -18 q-2 -6 -5 -6 l-74 0 l1 -85 q1 -14 1 -25.5 q0 -11.5 0 -20.5 q0 -4 -3 -5 q-4 -1 -11.5 -1.5 q-7.5 -0.5 -10.5 -0.5 q-5 0 -5.5 2.5 q-0.5 2.5 -0.5 4.5 q1 16 1 36.5 q0 20.5 0 50.5 l0 45 l-252 0 ZM276 458 q-7 -9 -22 -29 q-15 -20 -33.5 -44 q-18.5 -24 -38.5 -49.5 q-20 -25.5 -36 -46.5 q-15 -18 -29.5 -37 q-14.5 -19 -26.5 -35 q-12 -16 -20.5 -26.5 q-8.5 -10.5 -10.5 -13.5 l217 0 l0 281 Z" /><glyph glyph-name="" unicode="5" d="M183 32 q63 0 98 34 q35 34 35 92 q0 49 -31.5 83.5 q-31.5 34.5 -96.5 34.5 q-31 0 -54 -7 q-23 -7 -32 -11 q-5 -2 -5.5 0.5 q-0.5 2.5 -0.5 5.5 l0 136 q0 7 -0.5 19 q-0.5 12 -0.5 25 l0 36 l238 0 q2 0 2 -5 q0 -11 -2 -19 q-2 -6 -3 -6 q-14 0 -31.5 0 q-17.5 0 -33.5 1 q-12 0 -22 0.5 q-10 0.5 -17 0.5 l-105 0 l-4 -168 q26 10 50.5 13.5 q24.5 3.5 32.5 3.5 q69 0 110.5 -36 q41.5 -36 41.5 -104 q0 -40 -13.5 -68.5 q-13.5 -28.5 -36.5 -46.5 q-23 -18 -53.5 -26.5 q-30.5 -8.5 -64.5 -8.5 q-45 0 -78 13 q-33 13 -52 32 q-3 3 -1 16 q2 14 5 12 q18 -16 47.5 -34 q29.5 -18 77.5 -18 Z" /><glyph glyph-name="" unicode="6" d="M321 470 q0 -1 -2 -1 q-52 4 -93 -8 q-41 -12 -79 -48 q-22 -21 -37.5 -49 q-15.5 -28 -25 -57.5 q-9.5 -29.5 -13 -56.5 q-3.5 -27 -1.5 -47 q31 48 70 70 q39 22 85 22 q36 0 62.5 -12 q26.5 -12 44.5 -32 q18 -20 27 -45.5 q9 -25.5 9 -51.5 q0 -33 -11.5 -59 q-11.5 -26 -32.5 -45 q-21 -19 -49 -29 q-28 -10 -61 -10 q-39 0 -67.5 10.5 q-28.5 10.5 -48 26 q-19.5 15.5 -31.5 34.5 q-12 19 -19 37 q-13 37 -13 92 q0 51 16.5 102 q16.5 51 49 91.5 q32.5 40.5 80 65.5 q47.5 25 110.5 25 q5 0 9.5 0 q4.5 0 9.5 -1 q2 0 3.5 -3 q1.5 -3 2.5 -6 l5 -15 ZM332 150 q0 21 -6.5 43 q-6.5 22 -20.5 40 q-14 18 -36.5 29.5 q-22.5 11.5 -55.5 11.5 q-27 0 -51 -12 q-24 -12 -43 -30 q-19 -18 -30 -40 q-11 -22 -11 -42 q0 -54 37.5 -87 q37.5 -33 97.5 -33 q51 0 85 32 q34 32 34 88 Z" /><glyph glyph-name="" unicode="7" d="M381 473 q-30 -55 -59.5 -116 q-29.5 -61 -56.5 -116 q-29 -60 -56.5 -115.5 q-27.5 -55.5 -50.5 -97.5 q-5 -9 -10 -9 l-31 -1 q-1 0 -2 1 q-1 1 0 4 q17 28 38.5 67 q21.5 39 44.5 81.5 q23 42.5 45 85.5 q22 43 41 81.5 q19 38.5 33.5 68 q14.5 29.5 20.5 45.5 l-264 0 l-1 1 q-2 2 -2 3 l0 10 q0 4 -0.5 7.5 q-0.5 3.5 -0.5 5.5 q0 3 2 3 q22 -2 34 -2 q12 0 29 0 l183 0 q9 0 17 1 q8 1 16 1 l32 0 q2 0 0 -5 l-2 -4 Z" /><glyph glyph-name="" unicode="8" d="M23 143 q0 21 10.5 42.5 q10.5 21.5 28.5 40 q18 18.5 42.5 33 q24.5 14.5 52.5 21.5 q-20 6 -38 15.5 q-18 9.5 -32.5 23 q-14.5 13.5 -23 32 q-8.5 18.5 -8.5 42.5 q0 22 12.5 40.5 q12.5 18.5 33 32 q20.5 13.5 47.5 21 q27 7.5 56 7.5 q30 0 56.5 -7 q26.5 -7 46.5 -20 q20 -13 32 -31.5 q12 -18.5 12 -42.5 q0 -23 -8.5 -41.5 q-8.5 -18.5 -23 -32.5 q-14.5 -14 -33 -23.5 q-18.5 -9.5 -39.5 -15.5 q34 -6 59.5 -21 q25.5 -15 42 -34 q16.5 -19 24.5 -38.5 q8 -19.5 8 -34.5 q0 -36 -13.5 -62.5 q-13.5 -26.5 -37.5 -44 q-24 -17.5 -57.5 -26 q-33.5 -8.5 -72.5 -8.5 q-44 0 -77 11 q-33 11 -55.5 29 q-22.5 18 -33.5 42 q-11 24 -11 50 ZM339 147 q0 51 -38 85 q-38 34 -101 34 q-30 0 -55.5 -9.5 q-25.5 -9.5 -44 -25.5 q-18.5 -16 -28.5 -38 q-10 -22 -10 -46 q0 -51 35.5 -83 q35.5 -32 102.5 -32 q68 0 103.5 32.5 q35.5 32.5 35.5 82.5 ZM315 383 q0 18 -7 34 q-7 16 -20.5 29 q-13.5 13 -35 20.5 q-21.5 7.5 -49.5 7.5 q-53 0 -83.5 -26.5 q-30.5 -26.5 -30.5 -64.5 q0 -40 32 -66.5 q32 -26.5 82 -26.5 q50 0 81 26.5 q31 26.5 31 66.5 Z" /><glyph glyph-name="" unicode="9" d="M82 34 q0 2 3 2 q53 -5 93 7.5 q40 12.5 78 48.5 q22 21 37.5 49 q15.5 28 25.5 57 q10 29 13.5 56 q3.5 27 1.5 47 q-60 -91 -157 -91 q-35 0 -61.5 12 q-26.5 12 -44.5 32 q-18 20 -27 45.5 q-9 25.5 -9 51.5 q0 33 11.5 59.5 q11.5 26.5 32.5 45.5 q21 19 49 29 q28 10 61 10 q39 0 67.5 -10.5 q28.5 -10.5 48.5 -26 q20 -15.5 32 -34.5 q12 -19 18 -37 q6 -18 9.5 -41.5 q3.5 -23.5 3.5 -52.5 q0 -51 -16.5 -101.5 q-16.5 -50.5 -49 -90.5 q-32.5 -40 -80.5 -65 q-48 -25 -110 -25 q-5 0 -9.5 0 q-4.5 0 -9.5 1 q-4 0 -6 7 q-2 5 -3 7.5 q-1 2.5 -2 7.5 ZM71 354 q0 -20 6.5 -42 q6.5 -22 20.5 -40 q14 -18 36.5 -29.5 q22.5 -11.5 55.5 -11.5 q27 0 51.5 12 q24.5 12 43 30 q18.5 18 29.5 39.5 q11 21.5 11 41.5 q0 27 -10 49.5 q-10 22.5 -28 38 q-18 15.5 -42.5 24.5 q-24.5 9 -54.5 9 q-52 0 -85.5 -32 q-33.5 -32 -33.5 -89 Z" /><glyph glyph-name="" unicode=":" d="M94 171 q0 9 7.5 15.5 q7.5 6.5 18.5 6.5 q12 0 20 -6.5 q8 -6.5 8 -15.5 q0 -12 -8 -18.5 q-8 -6.5 -20 -6.5 q-11 0 -18.5 6.5 q-7.5 6.5 -7.5 18.5 ZM94 38 q0 9 7.5 16.5 q7.5 7.5 18.5 7.5 q12 0 20 -7.5 q8 -7.5 8 -16.5 q0 -11 -8 -17 q-8 -6 -20 -6 q-11 0 -18.5 6 q-7.5 6 -7.5 17 Z" /><glyph glyph-name="" unicode=";" d="M103 172 q0 10 7.5 16 q7.5 6 18.5 6 q12 0 20 -6 q8 -6 8 -16 q0 -11 -8 -17.5 q-8 -6.5 -20 -6.5 q-11 0 -18.5 6.5 q-7.5 6.5 -7.5 17.5 ZM159 36 q-1 -15 -7.5 -30 q-6.5 -15 -16.5 -28.5 q-10 -13.5 -22.5 -25 q-12.5 -11.5 -24.5 -18.5 q-2 -1 -3.5 0 q-1.5 1 1.5 3 q21 22 29.5 39 q8.5 17 10.5 24 q4 11 1 20 q-3 9 -11 14 q-9 4 -12.5 11 q-3.5 7 -1.5 12 q1 6 9 8.5 q8 2.5 15 2.5 q34 -3 33 -32 Z" /><glyph glyph-name="" unicode="&lt;" d="M53 269 q0 4 1.5 6.5 q1.5 2.5 3.5 4.5 q48 19 96 38.5 q48 19.5 96 39.5 q48 20 94.5 38.5 q46.5 18.5 94.5 38.5 l0 -25 q0 -8 -5 -10 l-358 -134 l52 -20 l140 -55 q19 -8 38 -14.5 q19 -6.5 37 -14.5 l92 -37 l0 1 q4 -2 4 -11 l0 -25 l1 -1 q-50 22 -96.5 41 q-46.5 19 -94.5 39 q-14 5 -31 12 q-17 7 -32 13 l-128 53 q-5 2 -5 10 l0 12 ZM440 436 q-1 0 -1 -1 l0 1 q0 3 3 2.5 q3 -0.5 -2 -2.5 Z" /><glyph glyph-name="" unicode="=" d="M442 325 q0 -6 -3 -6 l-381 0 q-3 0 -3 6 l0 19 q0 6 3 6 l381 0 q3 0 3 -6 l0 -19 ZM442 183 q0 -6 -3 -6 l-381 0 q-3 0 -3 6 l0 19 q0 6 3 6 l381 0 q3 0 3 -6 l0 -19 Z" /><glyph glyph-name="" unicode="&gt;" d="M439 257 l0 12 q0 10 -5 12 l0 -1 l-381 156 l0 -26 q0 -7 3 -10 l127 -47 l139 -52 l-1 0 l95 -35 l-358 -141 q-2 -2 -3.5 -4.5 q-1.5 -2.5 -1.5 -5.5 l0 -25 q91 37 190 78.5 q99 41.5 190 78.5 q6 4 6 10 ZM50 89 q-4 -2 -0.5 -2 q3.5 0 3.5 3 q-1 -1 -3 -1 ZM53 436 l-1 0 q-2 1 -2 1 l3 -1 Z" /><glyph glyph-name="" unicode="?" d="M177 497 q25 0 45 -9 q20 -9 33 -23 q13 -14 20 -31.5 q7 -17.5 7 -33.5 q0 -30 -19.5 -59 q-19.5 -29 -42.5 -51 l1 0 l-16 -14 q-24 -26 -31.5 -55 q-7.5 -29 -8.5 -60 q1 -6 -3.5 -10.5 q-4.5 -4.5 -10.5 -4.5 q-9 0 -7 20 q0 38 9 68 q9 30 31 54 q5 6 12 12 q7 6 12 12 q17 18 32 43.5 q15 25.5 15 46.5 q0 11 -5 24 q-5 13 -15.5 24 q-10.5 11 -25.5 18.5 q-15 7.5 -33 7.5 q-21 0 -39 -6.5 q-18 -6.5 -32 -15.5 q-14 -9 -24.5 -19 q-10.5 -10 -17.5 -17 l-5 0 q-1 1 -4 5 q-3 4 -4 7 q-5 7 0 12 q7 7 18.5 16.5 q11.5 9.5 27.5 18 q16 8.5 36.5 14.5 q20.5 6 44.5 6 ZM133 40 q0 25 25 25 q26 0 26 -25 q0 -10 -7 -16.5 q-7 -6.5 -19 -6.5 q-11 0 -18 6.5 q-7 6.5 -7 16.5 Z" /><glyph glyph-name="" unicode="@" d="M459 384 l-1 -1 q1 3 4 6.5 q3 3.5 8 3.5 q2 0 3.5 -3.5 q1.5 -3.5 1.5 -6.5 l-26 -105 l-14 -76 q-2 -13 0.5 -28 q2.5 -15 8.5 -19 q5 -6 25 -6 q20 0 42 10.5 q22 10.5 38 21.5 q11 10 21.5 25.5 q10.5 15.5 18.5 32 q8 16.5 13 32.5 q5 16 5 26 q0 37 -12.5 73.5 q-12.5 36.5 -43.5 60.5 l1 0 q-32 28 -78.5 38.5 q-46.5 10.5 -102.5 10.5 q-19 0 -46 -4 q-27 -4 -55 -12.5 q-28 -8.5 -54 -22.5 q-26 -14 -44 -33 q-21 -17 -35 -38.5 q-14 -21.5 -22.5 -43.5 q-8.5 -22 -12.5 -42.5 q-4 -20.5 -4 -34.5 q0 -60 20 -100.5 q20 -40.5 59 -68.5 q34 -28 77 -36 q43 -8 93 -8 q54 0 102 13 q48 13 91 36 l-1 -1 q6 2 4 -8 q-2 -10 -10 -15 q-12 -10 -29 -19 q-17 -9 -30 -14 l1 0 q-39 -11 -74 -16 q-35 -5 -64 -5 q-23 0 -47.5 4 q-24.5 4 -49 11 q-24.5 7 -47.5 17.5 q-23 10.5 -42 24.5 q-42 32 -62 81.5 q-20 49.5 -20 103.5 q0 22 7 45.5 q7 23.5 18.5 46.5 q11.5 23 26.5 43.5 q15 20.5 31 37.5 q45 35 104 57 q59 22 119 22 q62 0 110 -13 q48 -13 89 -48 l-1 0 q29 -27 41 -59.5 q12 -32.5 12 -67.5 q0 -39 -15.5 -74.5 q-15.5 -35.5 -38.5 -62.5 q-20 -21 -51 -37 q-31 -16 -62 -16 q-21 -1 -34 12 q-4 5 -9 17.5 q-5 12.5 -6 33.5 q-35 -34 -63.5 -48.5 q-28.5 -14.5 -53.5 -14.5 q-20 0 -36.5 5.5 q-16.5 5.5 -26.5 18.5 q-11 11 -15.5 31 q-4.5 20 -3.5 46 q0 18 3.5 36.5 q3.5 18.5 9 36 q5.5 17.5 13 32 q7.5 14.5 16.5 23.5 q22 23 50 36.5 q28 13.5 59 13.5 q23 0 48 -15.5 q25 -15.5 38 -47.5 l11 45 ZM433 313 q0 9 -4 21 q-4 12 -12 22 q-8 10 -20.5 17 q-12.5 7 -30.5 7 q-32 0 -57 -14 q-25 -14 -39 -34 q-15 -23 -21.5 -53 q-6.5 -30 -6.5 -53 q0 -38 18 -55 q18 -17 50 -17 q14 0 29 5.5 q15 5.5 28 14.5 q13 9 23.5 19.5 q10.5 10.5 15.5 20.5 q17 28 22 50.5 q5 22.5 5 48.5 Z" /><glyph glyph-name="" unicode="a" d="M329 393 q22 -53 52.5 -120.5 q30.5 -67.5 59.5 -133.5 l52 -112 q3 -8 0 -10 q-2 -1 -16.5 -1 q-14.5 0 -21.5 0 q-1 1 -3.5 3.5 q-2.5 2.5 -4.5 6.5 l-48 116 l-21 51 q-15 1 -35.5 2 q-20.5 1 -42 1.5 q-21.5 0.5 -43 1 q-21.5 0.5 -38.5 0.5 q-18 0 -39 -2 q-21 -2 -31 -4 l-25 -56 l-52 -113 q-2 -7 -7 -7 q-4 0 -9.5 0.5 q-5.5 0.5 -10.5 0.5 l-10 0 q0 1 -1 2.5 q-1 1.5 1 4.5 q14 23 28.5 54.5 q14.5 31.5 28.5 57.5 q9 16 19.5 38.5 q10.5 22.5 22.5 49 q12 26.5 24.5 54.5 q12.5 28 24.5 55 q5 14 12.5 30 q7.5 16 13.5 29 q10 23 19 42 q8 17 14 31.5 q6 14.5 8 18.5 q2 4 5.5 10 q3.5 6 5.5 6 q10 2 16 0 q7 -2 10 -5.5 q3 -3.5 4 -6.5 q4 -8 8.5 -20.5 q4.5 -12.5 8.5 -21.5 l21 -53 ZM268 469 q-18 -42 -36 -85 q-16 -37 -34.5 -79.5 q-18.5 -42.5 -34.5 -79.5 l202 0 l-97 244 Z" /><glyph glyph-name="" unicode="b" d="M78 356 q-1 9 -1 25.5 q0 16.5 -1 34.5 q-1 19 -1.5 35 q-0.5 16 -0.5 26 q-1 9 0 12 q1 3 3 3 l49 2 q24 0 50 1.5 q26 1.5 60 1.5 q23 0 43.5 -1 q20.5 -1 34.5 -3 q18 -4 36 -12 q18 -8 32.5 -19.5 q14.5 -11.5 23 -26 q8.5 -14.5 8.5 -31.5 q0 -51 -41.5 -81.5 q-41.5 -30.5 -120.5 -47.5 q45 1 86 -11 q41 -12 63 -27 q40 -28 40 -80 q0 -32 -14.5 -54.5 q-14.5 -22.5 -38.5 -38 q-24 -15.5 -54.5 -24 q-30.5 -8.5 -63.5 -13.5 q-33 -5 -65 -7 q-32 -2 -58 -3 l-69 0 q-3 0 -3 6 q2 12 2 27 q0 15 0 27 q0 7 0.5 13 q0.5 6 0.5 12 l0 254 ZM109 281 q87 2 135 13 q48 11 65 20 q29 16 48 35.5 q19 19.5 19 48.5 q0 25 -15.5 41 q-15.5 16 -41.5 27 q-24 8 -50.5 9 q-26.5 1 -55.5 1 q-10 0 -22 0 q-12 0 -22 -1 q-5 0 -9 -0.5 q-4 -0.5 -9 -0.5 q-11 0 -22.5 -1 q-11.5 -1 -19.5 -2 l0 -190 ZM215 43 q26 2 58.5 7.5 q32.5 5.5 61 18.5 q28.5 13 47.5 35 q19 22 19 57 q0 30 -22 49.5 q-22 19.5 -54 30 q-32 10.5 -67 14.5 q-35 4 -61 4 l-88 -3 q0 -65 0 -104 q0 -39 0 -61.5 q0 -22.5 0.5 -32 q0.5 -9.5 0.5 -15.5 q16 -2 41.5 -2 q25.5 0 42.5 2 l21 0 Z" /><glyph glyph-name="" unicode="c" d="M469 54 q-2 -10 -5 -11 q-12 -7 -31.5 -13.5 q-19.5 -6.5 -41 -11 q-21.5 -4.5 -43 -7.5 q-21.5 -3 -36.5 -3 q-58 0 -106.5 17 q-48.5 17 -84 49 q-35.5 32 -55 78 q-19.5 46 -19.5 105 q0 52 21 97 q21 45 56.5 78 q35.5 33 82 51.5 q46.5 18.5 97.5 18.5 q48 0 90.5 -8.5 q42.5 -8.5 66.5 -20.5 q7 -4 6 -13 l-7 -18 q-2 -2 -6 -3.5 q-4 -1.5 -7 0.5 q-30 17 -65.5 26.5 q-35.5 9.5 -77.5 9.5 q-50 0 -91.5 -17 q-41.5 -17 -71 -47 q-29.5 -30 -46 -69.5 q-16.5 -39.5 -16.5 -84.5 q0 -42 14 -81.5 q14 -39.5 43 -70 q29 -30.5 73 -48.5 q44 -18 103 -18 q18 0 39 3.5 q21 3.5 40.5 8.5 q19.5 5 36.5 11.5 q17 6.5 29 12.5 q11 5 11 5 q2 -5 2 -14 q0 -9 -1 -12 Z" /><glyph glyph-name="" unicode="d" d="M64 310 q0 33 -0.5 64.5 q-0.5 31.5 -1.5 57.5 q-1 15 -1 26.5 q0 11.5 0 19.5 q0 5 1.5 9.5 q1.5 4.5 5.5 4.5 q27 0 52 0.5 q25 0.5 50 1.5 q24 1 47.5 1.5 q23.5 0.5 47.5 0.5 q60 0 103.5 -19.5 q43.5 -19.5 71.5 -51.5 q28 -32 41 -73.5 q13 -41.5 13 -85.5 q0 -54 -21.5 -97.5 q-21.5 -43.5 -59 -75 q-37.5 -31.5 -88.5 -50.5 q-51 -19 -111 -24 q-5 0 -16 -0.5 q-11 -0.5 -24 -1 q-13 -0.5 -25 -1 q-12 -0.5 -20 -0.5 q-11 0 -19.5 -0.5 q-8.5 -0.5 -13.5 -0.5 q-10 0 -17.5 0 q-7.5 0 -16.5 -1 l0 5 q1 21 1.5 40.5 q0.5 19.5 0.5 38.5 l0 212 ZM95 40 q46 0 66 0.5 q20 0.5 27 2.5 l7 0 q67 3 116.5 23.5 q49.5 20.5 81.5 52 q32 31.5 48 70 q16 38.5 16 77.5 q0 45 -13.5 83 q-13.5 38 -41.5 65.5 q-28 27.5 -71.5 43.5 q-43.5 16 -103.5 16 q-35 0 -66.5 -0.5 q-31.5 -0.5 -65.5 -5.5 l0 -428 Z" /><glyph glyph-name="" unicode="e" d="M109 281 l143 0 q26 0 56 0 q30 0 49 1 q5 0 5 -6 q0 -9 -2 -17 q-1 -2 -1 -4 l0 -1 l-250 0 l0 -210 l203 0 q11 0 24.5 0 q13.5 0 45.5 1 q6 0 6 -7 q0 -1 -2.5 -10 q-2.5 -9 -4.5 -11 q-2 -2 -6 -2 q-4 0 -12.5 0 q-8.5 0 -18.5 0.5 q-10 0.5 -19 0.5 q-9 0 -13 0 l-170 0 q-8 0 -15 -0.5 q-7 -0.5 -14 -0.5 l-29 0 q-6 0 -6 7 q0 11 0 28.5 q0 17.5 1 37.5 q0 19 0.5 36.5 q0.5 17.5 0.5 27.5 l0 168 q0 8 0 32.5 q0 24.5 -1 45.5 q-1 26 -2 48 q-1 22 -1 32 q0 13 12 13 l33 0 q11 0 21 -0.5 q10 -0.5 17 -0.5 l127 0 q7 0 19.5 0 q12.5 0 25.5 0.5 q13 0.5 25.5 1 q12.5 0.5 21.5 0.5 q5 -3 5 -6 q0 -4 0 -8.5 q0 -4.5 -1 -6.5 q-2 -7 -4 -7 l-269 0 l0 -183 Z" /><glyph glyph-name="" unicode="f" d="M92 355 q0 10 -0.5 26.5 q-0.5 16.5 -1.5 35.5 q-1 20 -1 37 q0 17 0 27 q0 11 5 11 q8 0 14.5 -0.5 q6.5 -0.5 12.5 -0.5 l201 0 q15 0 35 0 q20 0 37 1 q2 -2 2 -6 q0 -5 0 -9.5 q0 -4.5 -1 -6.5 q-1 -2 -1 -5 q0 -1 -1 -2 l-71 1 l-201 0 q0 -36 0 -64 q0 -28 0.5 -49.5 q0.5 -21.5 0.5 -38 q0 -16.5 0 -30.5 q29 0 62.5 0 q33.5 0 67 0.5 q33.5 0.5 65 0.5 q31.5 0 56.5 0 q2 0 2 -5 l-1 -18 q0 -3 -2 -4.5 q-2 -1.5 -3 -1.5 l-247 0 l0 -48 l0 -25 q0 -8 0.5 -31 q0.5 -23 0.5 -49 l0 -77 q0 -4 -3 -7 q-4 -2 -9 -2 q-5 0 -10 0 q-5 0 -7 1 q-6 1 -6 6 q0 10 0.5 35.5 q0.5 25.5 1.5 48.5 q1 25 1.5 45.5 q0.5 20.5 0.5 29.5 l0 174 Z" /><glyph glyph-name="" unicode="g" d="M317 501 q50 0 93 -9 q43 -9 67 -22 q3 -2 3 -10 q-1 -3 -3 -8.5 q-2 -5.5 -5 -10.5 l1 0 q-5 -7 -15 -3 l1 0 q-29 17 -64.5 26.5 q-35.5 9.5 -78.5 9.5 q-51 0 -93 -15 q-42 -15 -72.5 -43.5 q-30.5 -28.5 -47.5 -69 q-17 -40.5 -17 -92.5 q0 -43 13.5 -80.5 q13.5 -37.5 37.5 -65 q24 -27.5 58.5 -43 q34.5 -15.5 76.5 -15.5 q25 0 52 5 q27 5 52 15.5 q25 10.5 46 26 q21 15.5 34 35.5 l0 79 l-121 0 q-1 0 -1 6 l0 17 q2 5 5 5 l201 0 q1 0 1 -4 q0 -3 0 -8.5 q0 -5.5 -1 -8.5 q-1 -2 -1 -5 l0 -2 l-55 0 l0 -95 q0 -22 0.5 -44.5 q0.5 -22.5 0.5 -38.5 l0 -16 q0 -5 -5 -5 q-5 -1 -11.5 -1.5 q-6.5 -0.5 -10.5 -0.5 q-2 0 -2 5 l0 81 q-50 -47 -98.5 -62.5 q-48.5 -15.5 -85.5 -15.5 q-48 0 -88 18.5 q-40 18.5 -69 50 q-29 31.5 -45 74.5 q-16 43 -16 93 q0 55 20.5 101 q20.5 46 56 78 q35.5 32 83.5 50 q48 18 103 18 Z" /><glyph glyph-name="" unicode="h" d="M460 408 q0 20 0 40.5 q0 20.5 -1 39.5 q-1 3 3 5 q5 1 14.5 1 q9.5 0 14.5 -1 q3 0 3 -7 q0 -20 -1.5 -39.5 q-1.5 -19.5 -0.5 -39.5 l1 -239 q0 -14 0 -34.5 q0 -20.5 0.5 -42.5 q0.5 -22 1 -41 q0.5 -19 1.5 -29 q0 -6 -3 -6 q-2 0 -4.5 -0.5 q-2.5 -0.5 -5.5 -0.5 q-13 -2 -21 0 q-5 0 -3 5 q0 10 0.5 31.5 q0.5 21.5 0.5 44.5 q0 23 0 43.5 q0 20.5 0 29.5 l0 88 l-359 0 q0 -38 0.5 -76 q0.5 -38 0.5 -78 q1 -22 1.5 -43.5 q0.5 -21.5 0.5 -33.5 q0 -5 -6 -6 q-4 -1 -13 -1.5 q-9 -0.5 -14 -0.5 q-3 2 -4 7 q1 10 1.5 30.5 q0.5 20.5 1 42.5 q0.5 22 0.5 42 q0 20 0 29 q0 26 0 60.5 q0 34.5 0 69 q0 34.5 0 64 q0 29.5 0 45.5 q0 20 -0.5 40.5 q-0.5 20.5 -2.5 39.5 q1 2 2 4 q1 2 2 2 q5 1 12.5 1 q7.5 0 12.5 -1 q5 -2 5 -6 q-1 -20 -1 -40 q0 -20 0 -40 l0 -120 q85 0 180 0.5 q95 0.5 180 0.5 l0 120 Z" /><glyph glyph-name="" unicode="i" d="M131 189 q0 -9 0 -33.5 q0 -24.5 1 -47.5 q0 -26 0.5 -48.5 q0.5 -22.5 0.5 -32.5 q0 -8 -5 -10 l1 0 q-4 -1 -14 -1.5 q-10 -0.5 -16 0.5 q-4 0 -4 10 q0 11 0 34.5 q0 23.5 1 49.5 q0 26 0.5 48 q0.5 22 0.5 31 q0 49 -0.5 85.5 q-0.5 36.5 0.5 58.5 q0 10 -0.5 32.5 q-0.5 22.5 -0.5 45.5 l0 72 q0 8 4 10 q5 1 14 1 q9 0 13 -1 q4 -2 4 -10 q0 -3 0 -11.5 q0 -8.5 -0.5 -19 q-0.5 -10.5 -0.5 -21.5 q0 -11 0 -20 q-1 -23 -1 -45.5 q0 -22.5 0 -32.5 q0 -6 0 -29 q0 -23 1 -49 q0 -30 1 -66 Z" /><glyph glyph-name="" unicode="j" d="M-19 -45 q58 -2 98 18 q40 20 45 68 q0 3 0.5 7.5 q0.5 4.5 0.5 7.5 q1 14 1.5 29.5 q0.5 15.5 0.5 31.5 l0 200 q0 41 0 85.5 q0 44.5 -2 84.5 q0 6 4 6 q3 1 12 1 q9 0 16 -1 q3 -3 3 -7 q-1 -38 -1.5 -61 q-0.5 -23 -0.5 -39.5 q0 -16.5 0 -31.5 q0 -15 0 -37 q0 -25 0.5 -51 q0.5 -26 1.5 -52 q1 -26 1 -51.5 q0 -25.5 0 -50.5 q0 -18 -1 -38.5 q-1 -20.5 -5 -40.5 q-4 -20 -11.5 -37.5 q-7.5 -17.5 -19.5 -30.5 q-14 -12 -30 -20.5 q-16 -8.5 -32 -14.5 q-16 -6 -30 -9.5 q-14 -3.5 -23 -4.5 q-9 0 -11 2 q-2 1 -9 11 q-7 10 -10 21 q-1 5 2 5 Z" /><glyph glyph-name="" unicode="k" d="M128 170 q0 -9 0.5 -30.5 q0.5 -21.5 1.5 -41.5 q1 -20 1 -41.5 q0 -21.5 1 -32.5 q0 -7 -2 -7 l-37 -1 q-1 0 -1.5 2 q-0.5 2 -0.5 4 q0 10 0.5 31 q0.5 21 1 43.5 q0.5 22.5 1 43 q0.5 20.5 0.5 29.5 l0 194 q0 9 -0.5 25.5 q-0.5 16.5 -1 34.5 q-0.5 18 -1 35.5 q-0.5 17.5 -0.5 28.5 q0 2 0.5 4 q0.5 2 1.5 2 l37 0 q1 0 1.5 -2 q0.5 -2 0.5 -4 q-1 -10 -1.5 -27 q-0.5 -17 -1 -35.5 q-0.5 -18.5 -1 -35 q-0.5 -16.5 -0.5 -26.5 l0 -108 q32 25 70 56.5 q38 31.5 74.5 63 q36.5 31.5 68 59.5 q31.5 28 51.5 46 l10 8 q6 5 15 5 l32 0 q1 0 2 -1 q1 -2 0 -3 l-19 -17 q-2 -2 -6.5 -5.5 q-4.5 -3.5 -8.5 -6.5 q-4 -3 -6 -5 q-2 -2 0 0 l-1 -1 l-187 -155 q13 -15 28 -31.5 q15 -16.5 26 -30.5 q34 -41 70 -82.5 q36 -41.5 69 -76.5 l32 -35 l16 -18 q7 -6 5.5 -7.5 q-1.5 -1.5 -4.5 -2.5 q-6 -1 -18 -1.5 q-12 -0.5 -17 -0.5 q-9 0 -14 6 q-1 1 -14 16.5 q-13 15.5 -33.5 39.5 q-20.5 24 -45 53.5 q-24.5 29.5 -48.5 58 q-24 28.5 -44 53 q-20 24.5 -32 39.5 l-71 -59 l0 -50 Z" /><glyph glyph-name="" unicode="l" d="M80 349 q0 14 -0.5 25.5 q-0.5 11.5 -0.5 21.5 q0 21 0 43 q0 22 -2 48 q0 2 0 4 q0 2 2 2 l32 0 q1 0 1.5 -2 q0.5 -2 0.5 -4 q-2 -33 -2 -55 q0 -22 0 -49 l0 -71 q0 -14 0 -34.5 q0 -20.5 0 -43.5 q0 -23 0.5 -46.5 q0.5 -23.5 0.5 -42.5 l0 -86 q0 -6 2 -10 q2 -4 14 -4 l138 0 q5 0 17 0 q12 0 26.5 0 q14.5 0 29.5 0.5 q15 0.5 26 1.5 q2 0 2 -7 q0 -2 -1.5 -10 q-1.5 -8 -3.5 -13 q-1 -2 -2 -2 l-42 0 q-15 0 -28 0.5 q-13 0.5 -21 0.5 l-159 0 q-7 0 -13 -0.5 q-6 -0.5 -14 -0.5 q-2 0 -3.5 3.5 q-1.5 3.5 -1.5 6.5 q1 16 1 30 q0 14 0 28 l0 19 l1 247 Z" /><glyph glyph-name="" unicode="m" d="M487 393 q6 13 10 24 q4 11 9 22 q8 20 11.5 27 q3.5 7 8.5 17 q5 9 7.5 12 q2.5 3 7.5 5 q2 1 7 1 q5 0 8 -1 q3 -2 6 -8.5 q3 -6.5 7 -21.5 q5 -19 9 -38 q4 -19 8 -38 q12 -53 27.5 -116.5 q15.5 -63.5 29.5 -120 q14 -56.5 23.5 -95 q9.5 -38.5 10.5 -41.5 q2 -3 -0.5 -4.5 q-2.5 -1.5 -4.5 -2.5 q-5 -2 -11.5 -2 q-6.5 0 -11.5 1 q-6 2 -6 7 l-103 426 l-167 -377 q-2 -6 -10 -8 q-2 -1 -10 -1 q-8 0 -10 1 q-8 2 -11 8 q-5 11 -13.5 31 q-8.5 20 -26.5 62 q-18 42 -47.5 111 q-29.5 69 -77.5 177 q-12 -51 -24 -106 q-12 -55 -23.5 -110.5 q-11.5 -55.5 -23 -110 q-11.5 -54.5 -21.5 -103.5 q-2 -7 -6 -7 q-8 0 -17 0.5 q-9 0.5 -13 1.5 q-3 1 -1 9 q1 5 2.5 11.5 q1.5 6.5 4.5 16.5 q3 10 7 25.5 q4 15.5 11 39.5 q1 6 4.5 21.5 q3.5 15.5 8 36 q4.5 20.5 10 45 q5.5 24.5 10.5 48.5 q12 57 28 126 q2 12 5.5 25 q3.5 13 5.5 25 l10 40 q3 13 11 15 q2 1 7 1 q5 0 7 -1 q5 -2 8 -5 q3 -3 7 -11 q7 -12 12 -25 q5 -13 11 -26 l31 -71 q12 -29 30 -71.5 q18 -42.5 35 -83.5 q17 -41 30 -73.5 q13 -32.5 16 -39.5 q13 27 31.5 66.5 q18.5 39.5 37.5 81.5 q19 42 37 82 q18 40 31 70 Z" /><glyph glyph-name="" unicode="n" d="M179 446 q24 -26 51 -57 q27 -31 65 -75.5 q38 -44.5 91 -105 q53 -60.5 129 -145.5 q0 22 0 58.5 q0 36.5 0 75.5 q0 39 -0.5 73 q-0.5 34 -0.5 52 q0 10 -0.5 34.5 q-0.5 24.5 -0.5 50.5 q0 25 0 49 q0 24 -1 36 q0 5 3 5 q6 1 15 1.5 q9 0.5 15 0.5 q1 -1 2.5 -2.5 q1.5 -1.5 1.5 -3.5 q0 -8 0 -31 q0 -23 -1 -51 q-1 -29 -1.5 -54.5 q-0.5 -25.5 -0.5 -33.5 l0 -299 q0 -5 -3.5 -9.5 q-3.5 -4.5 -8.5 -4.5 q-7 0 -21 11 l1 0 q-4 3 -11.5 10.5 q-7.5 7.5 -15.5 15.5 q-10 9 -20 20 l0 -1 l-333 383 q0 -8 -0.5 -24.5 q-0.5 -16.5 -1 -35.5 q-0.5 -19 -0.5 -38 q0 -19 0 -34 q0 -26 0 -50.5 q0 -24.5 1 -35.5 q0 -13 0.5 -42.5 q0.5 -29.5 0.5 -62 q0 -32.5 0 -61.5 q0 -29 0 -41 q0 -4 -3 -7 q-3 0 -5.5 -0.5 q-2.5 -0.5 -7.5 -0.5 l-18 0 q-3 0 -3 6 q0 10 0 26.5 q0 16.5 0.5 36 q0.5 19.5 1 39.5 q0.5 20 0.5 37 q1 25 1 44 q0 19 0 26 l0 256 q0 5 4.5 9.5 q4.5 4.5 10.5 4.5 q10 0 21 -11 l0 1 l43 -45 Z" /><glyph glyph-name="" unicode="o" d="M67 254 q0 22 4.5 47.5 q4.5 25.5 14 50 q9.5 24.5 23.5 47 q14 22.5 34 40.5 l-1 0 q40 34 84 49 q44 15 99 15 q54 0 95 -15 q41 -15 80 -49 q41 -36 59 -86.5 q18 -50.5 18 -98.5 q0 -54 -19 -101.5 q-19 -47.5 -55 -81.5 q-35 -34 -81.5 -49.5 q-46.5 -15.5 -96.5 -15.5 q-54 0 -101 16 q-47 16 -82 46 q-17 16 -31 38.5 q-14 22.5 -24 48 q-10 25.5 -15 51.5 q-5 26 -5 48 ZM536 256 q0 21 -3.5 44 q-3.5 23 -11.5 46 q-8 23 -20.5 45 q-12.5 22 -31.5 40 q-28 26 -65 38.5 q-37 12.5 -79 12.5 q-40 0 -79 -12 q-39 -12 -71 -39 q-18 -17 -31 -39 q-13 -22 -21.5 -45.5 q-8.5 -23.5 -12 -47 q-3.5 -23.5 -3.5 -43.5 q0 -47 15 -94.5 q15 -47.5 53 -82.5 q16 -14 35 -23.5 q19 -9.5 39.5 -15.5 q20.5 -6 40 -9 q19.5 -3 35.5 -3 q37 0 74 11 q37 11 70 40 q19 18 32 40.5 q13 22.5 21 46.5 q8 24 11 47.5 q3 23.5 3 42.5 Z" /><glyph glyph-name="" unicode="p" d="M111 492 q9 0 22.5 0.5 q13.5 0.5 19.5 1.5 q29 2 58.5 3 q29.5 1 40.5 1 q8 0 18 -0.5 q10 -0.5 27 -1.5 q49 -5 83 -33.5 q34 -28.5 34 -76.5 q0 -41 -16 -68.5 q-16 -27.5 -52 -45.5 q-38 -19 -83.5 -23.5 q-45.5 -4.5 -87.5 -4.5 l-64 0 l0 -52 q0 -22 0.5 -43 q0.5 -21 0.5 -42 l0 -83 q0 -5 -5 -7 l2 0 q-5 -1 -15.5 -1.5 q-10.5 -0.5 -15.5 0.5 q-3 0 -3 7 q0 22 0 42.5 q0 20.5 1 40.5 q1 21 1.5 42 q0.5 21 0.5 44 l0 163 q0 11 -0.5 32 q-0.5 21 -1.5 42 q-1 15 -1 27.5 q0 12.5 0 17.5 q0 11 2 14.5 q2 3.5 5 3.5 l29 0 ZM111 470 l0 -201 l68 0 q33 0 69 5.5 q36 5.5 65 19.5 q32 15 46.5 35 q14.5 20 14.5 52 q0 25 -9 44 q-9 19 -36 34 q-20 10 -40 13 q-20 3 -42 3 q-8 0 -16.5 0 q-8.5 0 -15.5 -1 l-104 -4 Z" /><glyph glyph-name="" unicode="q" d="M80 254 q0 21 5.5 46 q5.5 25 15.5 50 q10 25 24 48 q14 23 32 41 q77 64 182 64 q54 0 95 -15 q41 -15 82 -49 l-1 0 q40 -36 58 -86.5 q18 -50.5 18 -98.5 q0 -54 -19 -101.5 q-19 -47.5 -54 -81.5 q-23 -23 -51 -36.5 q-28 -13.5 -60 -21.5 q21 -14 48 -33.5 q27 -19.5 48 -36.5 q11 -7 20.5 -14.5 q9.5 -7.5 19.5 -14.5 l40 -28 q2 -2 3.5 -5 q1.5 -3 -0.5 -4 l-30 -16 q-3 -1 -7 0 q-5 5 -10.5 9 q-5.5 4 -9.5 8 l-30 26 q-9 8 -26.5 22 q-17.5 14 -37 29 q-19.5 15 -37.5 29 q-18 14 -30 23 q-8 -1 -15 -1 q-7 0 -14 0 q-55 0 -102 15.5 q-47 15.5 -81 46.5 q-18 16 -32 38.5 q-14 22.5 -24 48 q-10 25.5 -15 51.5 q-5 26 -5 48 ZM549 256 q0 21 -3.5 44 q-3.5 23 -11.5 46 q-8 23 -20.5 45 q-12.5 22 -31.5 40 q-28 26 -65 38.5 q-37 12.5 -78 12.5 q-42 0 -80 -11 q-38 -11 -71 -40 q-19 -17 -31.5 -39 q-12.5 -22 -20.5 -45.5 q-8 -23.5 -11.5 -47 q-3.5 -23.5 -3.5 -43.5 q0 -47 15 -94.5 q15 -47.5 52 -82.5 q16 -14 35.5 -23.5 q19.5 -9.5 39.5 -15.5 q20 -6 39.5 -9 q19.5 -3 36.5 -3 q36 0 74 12 q38 12 69 39 q19 18 31.5 40.5 q12.5 22.5 20.5 46.5 q8 24 11.5 47.5 q3.5 23.5 3.5 42.5 Z" /><glyph glyph-name="" unicode="r" d="M111 492 q14 0 32.5 1 q18.5 1 32.5 2 q18 1 36.5 1.5 q18.5 0.5 37.5 0.5 q17 0 32.5 -1 q15.5 -1 29.5 -4 q42 -7 67 -33 q25 -26 25 -66 q0 -33 -17 -58.5 q-17 -25.5 -47 -42.5 q-27 -16 -52 -23.5 q-25 -7.5 -56 -10.5 q9 -12 25 -31.5 q16 -19.5 33.5 -40.5 q17.5 -21 33 -39.5 q15.5 -18.5 23.5 -28.5 q19 -22 42.5 -46.5 q23.5 -24.5 44.5 -44.5 q5 -5 5 -7.5 q0 -2.5 -2 -3.5 q-8 -1 -21 -1 q-13 0 -17 1 q-12 1 -17 8 q-12 13 -33 40 q-21 27 -41 50 l-24 31 l-96 110 l-40 0 l-37 0 l0 -63 q0 -22 0.5 -43 q0.5 -21 0.5 -42 l0 -83 q0 -5 -5 -7 q-4 -1 -14 -1.5 q-10 -0.5 -15 0.5 q-3 0 -3 7 q0 22 0 42.5 q0 20.5 1 40.5 q1 21 1.5 42 q0.5 21 0.5 44 l0 163 q0 11 -0.5 32 q-0.5 21 -1.5 42 q-1 15 -1 27.5 q0 12.5 0 17.5 q0 11 2 14.5 q2 3.5 5 3.5 l29 0 ZM209 474 q-20 -1 -48.5 -3 q-28.5 -2 -49.5 -3 l0 -190 q14 -1 30.5 -0.5 q16.5 0.5 28.5 0.5 q48 0 83 6 q35 6 51 14 q29 14 46.5 35.5 q17.5 21.5 17.5 51.5 q0 26 -8.5 42 q-8.5 16 -25.5 30 q-8 7 -30.5 12.5 q-22.5 5.5 -64.5 5.5 q-6 0 -14.5 0 q-8.5 0 -15.5 -1 Z" /><glyph glyph-name="" unicode="s" d="M54 70 q1 3 3 5 q2 2 5 0 q28 -19 61.5 -27 q33.5 -8 73.5 -8 q34 0 60 10 q26 10 43.5 25.5 q17.5 15.5 26 34.5 q8.5 19 8.5 37 q0 40 -44 69 q-20 14 -52.5 26 q-32.5 12 -62.5 23 q-8 2 -17 6.5 q-9 4.5 -17 7.5 q-33 15 -57.5 41 q-24.5 26 -24.5 61 q0 29 12 52.5 q12 23.5 32 35.5 q23 15 53.5 24 q30.5 9 81.5 9 q25 0 50.5 -7 q25.5 -7 47.5 -18 q4 -4 4 -13 q0 -5 -2 -12.5 q-2 -7.5 -4 -12.5 l-2 -2 q-2 -2 -4 1 q-18 14 -42 24 q-24 10 -56 10 q-38 0 -60.5 -5.5 q-22.5 -5.5 -41.5 -16.5 q-16 -10 -26 -25.5 q-10 -15.5 -10 -33.5 q0 -32 25 -54 q25 -22 59 -36 l38 -15 q16 -6 33 -13 q17 -7 32.5 -13.5 q15.5 -6.5 28.5 -12.5 q13 -6 21 -12 q42 -33 42 -83 q0 -35 -14.5 -61.5 q-14.5 -26.5 -39 -44.5 q-24.5 -18 -55.5 -28 q-31 -10 -64 -11 q-50 -2 -84.5 6 q-34.5 8 -62.5 22 q-2 2 -2.5 6 q-0.5 4 -0.5 9 q0 5 1.5 9 q1.5 4 3.5 11 Z" /><glyph glyph-name="" unicode="t" d="M136 460 q-29 0 -54 -0.5 q-25 -0.5 -51 -2.5 q-5 0 -7 10 q0 2 -0.5 7 q-0.5 5 -0.5 10 q0 7 5 7 q9 0 25 -0.5 q16 -0.5 28 -0.5 q15 -1 29 -1 q14 0 26 0 l185 0 q12 0 28 0 q16 0 28 1 q14 0 26 0.5 q12 0.5 25 0.5 q1 0 3 -7 q1 -4 0 -11.5 q-1 -7.5 -3 -11.5 q-1 -4 -5 -4 q-26 2 -50.5 2.5 q-24.5 0.5 -51.5 0.5 l-76 0 l0 -268 q0 -41 1 -84.5 q1 -43.5 3 -85.5 q0 -2 -0.5 -4 q-0.5 -2 -1.5 -2 l-35 0 q-2 0 -2 7 q2 44 2.5 84 q0.5 40 0.5 85 l0 268 l-77 0 Z" /><glyph glyph-name="" unicode="u" d="M492 484 q0 7 3 8 q9 3 29 0 q2 -1 3.5 -2 q1.5 -1 1.5 -5 q0 -10 0 -26 q0 -16 -1 -35 q-1 -19 -1.5 -36.5 q-0.5 -17.5 -0.5 -28.5 l0 -153 q0 -47 -11.5 -84 q-11.5 -37 -37 -62.5 q-25.5 -25.5 -66.5 -39.5 q-41 -14 -99 -14 q-109 0 -159 47 q-50 47 -50 150 l0 283 q0 4 6 6 q3 2 11.5 1.5 q8.5 -0.5 13.5 -1.5 q4 0 4 -7 q0 -8 0 -23.5 q0 -15.5 -0.5 -34 q-0.5 -18.5 -1 -37.5 q-0.5 -19 -0.5 -32 l0 -95 q0 -20 0 -42 q0 -22 2 -42 q7 -69 52.5 -105.5 q45.5 -36.5 121.5 -36.5 q91 0 135.5 43 q44.5 43 42.5 117 q0 6 0 32 q0 26 1 55 q0 33 1 75 l0 125 Z" /><glyph glyph-name="" unicode="v" d="M251 24 q-11 23 -25 54.5 q-14 31.5 -30.5 66.5 q-16.5 35 -32.5 70.5 q-16 35.5 -30.5 66 q-14.5 30.5 -26 54.5 q-11.5 24 -16.5 35 q-11 23 -20.5 45.5 q-9.5 22.5 -20.5 43.5 l-14 29 q-1 1 -1 2 q0 2 2 2 q8 1 19.5 1 q11.5 0 19.5 -1 q5 -3 8 -7 q7 -17 15.5 -36 q8.5 -19 15.5 -37 q5 -14 9.5 -25 q4.5 -11 9.5 -21 q4 -9 12 -27 q8 -18 18.5 -41 q10.5 -23 22.5 -49 q12 -26 24 -51 q27 -61 60 -131 q7 14 17.5 36.5 q10.5 22.5 23 49.5 q12.5 27 26 56 q13.5 29 26 56 q12.5 27 22.5 50 q10 23 17 38 q11 23 20 44.5 q9 21.5 17 41.5 l19 46 q1 5 9 7 q6 1 19.5 1 q13.5 0 18.5 -1 q3 0 1 -5 l-59 -117 q-14 -30 -37.5 -78.5 q-23.5 -48.5 -48 -100.5 q-24.5 -52 -46 -98 q-21.5 -46 -32.5 -70 q-5 -8 -9 -8 l-14 0 q-5 0 -7 4 q-2 2 -2 4 Z" /><glyph glyph-name="" unicode="w" d="M205 16 q-5 1 -8.5 6.5 q-3.5 5.5 -5.5 10.5 l-34 97 l-112 312 l-17 45 q-2 6 0 6 q6 1 18 1 q12 0 20 -1 q5 -2 8 -10 l-1 1 q3 -11 10.5 -33 q7.5 -22 23.5 -68 q16 -46 42.5 -121.5 q26.5 -75.5 68.5 -193.5 q11 26 25 62 q14 36 28.5 75 q14.5 39 29 78 q14.5 39 26.5 71 q12 32 19.5 53.5 q7.5 21.5 9.5 26.5 l17 51 q4 8 7 8 l38 0 q5 0 6 -4 l20 -55 l143 -363 q15 40 36.5 96.5 q21.5 56.5 43 115 q21.5 58.5 41 112.5 q19.5 54 31.5 90 q3 8 8 8 l36 0 q4 0 2 -4 l-141 -358 q-3 -8 -8 -22.5 q-5 -14.5 -11 -30 q-6 -15.5 -11 -29.5 q-5 -14 -8 -20 q-1 -3 -4 -7.5 q-3 -4.5 -9 -5.5 q-2 -1 -7.5 -1 q-5.5 0 -7.5 1 q-5 1 -8 4.5 q-3 3.5 -4 6.5 l-39 103 q-1 1 -10.5 24.5 q-9.5 23.5 -26 65.5 q-16.5 42 -39.5 100 q-23 58 -51 129 l-123 -318 l-38 -99 q-2 -4 -5 -9.5 q-3 -5.5 -6 -6.5 q-5 -1 -12.5 -1 q-7.5 0 -9.5 1 l-1 0 Z" /><glyph glyph-name="" unicode="x" d="M247 240 l-70 -100 q-4 -6 -15.5 -22.5 q-11.5 -16.5 -24 -35 q-12.5 -18.5 -24 -34.5 q-11.5 -16 -15.5 -21 q-6 -10 -20 -11 q-8 -1 -17.5 -1 q-9.5 0 -14.5 2 q-7 2 2 11 l94 120 q11 14 36 47.5 q25 33.5 51 70.5 l-78 116 l-75 105 q-1 1 -1 3.5 q0 2.5 3 2.5 q7 0 19.5 0 q12.5 0 18.5 -1 q2 -1 5 -3.5 q3 -2.5 5 -4.5 l69 -107 l55 -81 q21 30 37.5 53 q16.5 23 21.5 31 l28 41 q11 16 21.5 31.5 q10.5 15.5 18.5 30.5 q5 9 12 9 q5 1 15 1 q10 0 18 0 q2 0 2.5 -2.5 q0.5 -2.5 -0.5 -3.5 l-79 -108 l-77 -109 l85 -121 l46 -62 l45 -62 q5 -7 0 -8 q-11 -1 -20 -1 q-9 0 -20 0 q-6 0 -16 11 q-3 3 -14 20.5 q-11 17.5 -24 37.5 q-15 23 -32 52 l-71 103 Z" /><glyph glyph-name="" unicode="y" d="M203 261 l-113 169 q-5 7 -10 12.5 q-5 5.5 -8 10.5 q-6 8 -10 13.5 q-4 5.5 -11 16.5 q-8 10 -1 10 q7 1 17.5 0.5 q10.5 -0.5 17.5 -1.5 q6 -2 14 -12 l18 -28 l13 -23 l48 -73 l74 -114 l121 186 l16 26 l18 26 q7 10 15 12 q5 2 14.5 2 q9.5 0 16.5 -1 q2 0 3.5 -2 q1.5 -2 -2.5 -7 q-13 -16 -19 -26 l-19 -27 q-3 -5 -11.5 -17 q-8.5 -12 -19.5 -28.5 q-11 -16.5 -24 -35.5 q-13 -19 -26 -38 q-31 -45 -68 -99 l-1 -37 q0 -18 -0.5 -36.5 q-0.5 -18.5 0.5 -37.5 q0 -11 0 -20.5 q0 -9.5 1 -19.5 q1 -10 1.5 -20 q0.5 -10 0.5 -20 q0 -3 -3 -6 q-6 -1 -15 -1 q-9 0 -13 1 q-5 2 -5 5 q2 11 2 23.5 q0 12.5 0 25.5 l0 84 q0 14 0.5 28 q0.5 14 0.5 29 l-33 50 Z" /><glyph glyph-name="" unicode="z" d="M41 37 q20 26 51.5 62 q31.5 36 66.5 77 q33 38 68 78 q35 40 66.5 77.5 q31.5 37.5 57 70.5 q25.5 33 41.5 56 l-316 0 q-5 0 -7 9 q-2 6 -2 16 q0 5 3 5.5 q3 0.5 7 0.5 l101 -2 l270 0 q5 0 5.5 -6 q0.5 -6 -5.5 -14 q-42 -51 -84 -100 q-42 -49 -81 -95 q-48 -56 -96 -112.5 q-48 -56.5 -87 -107.5 l196 0 q9 0 32.5 0.5 q23.5 0.5 49.5 1 q26 0.5 49.5 1 q23.5 0.5 33.5 0.5 q2 -2 2 -7 q0 -3 -1 -11.5 q-1 -8.5 -2 -11.5 q-2 -6 -4 -6 l-407 0 q-11 0 -11 7 q0 7 3 11 Z" /><glyph glyph-name="" unicode="[" d="M108 364 q0 10 -0.5 26.5 q-0.5 16.5 -1 34 q-0.5 17.5 -1 34.5 q-0.5 17 -1.5 28 q0 3 2 6.5 q2 3.5 4 3.5 l125 0 q4 0 6 -2 q1 -1 2 -1 q1 -9 0 -17 q-2 -5 -4 -5.5 q-2 -0.5 -4 -0.5 l-90 0 l0 -626 l90 0 q5 0 7 -4 q1 -5 1.5 -9 q0.5 -4 -0.5 -7 q-2 -5 -4.5 -6.5 q-2.5 -1.5 -3.5 -1.5 l-39 1 l-61 0 q-4 0 -9 -0.5 q-5 -0.5 -13 -0.5 q-5 0 -6 4 q-1 4 -1 7 q1 11 1.5 41 q0.5 30 0.5 63.5 q0 33.5 0 63 q0 29.5 0 40.5 l0 328 Z" /><glyph glyph-name="" unicode="\" d="M332 12 q2 -5 -0.5 -8.5 q-2.5 -3.5 -5.5 -3.5 l-17 0 q-3 0 -7.5 3.5 q-4.5 3.5 -6.5 6.5 l-201 489 q0 4 0.5 6 q0.5 2 6.5 2 l17 0 q2 0 4.5 -0.5 q2.5 -0.5 5.5 -4.5 l204 -490 Z" /><glyph glyph-name="" unicode="]" d="M164 36 q0 -11 0 -40.5 q0 -29.5 0 -63 q0 -33.5 0.5 -63.5 q0.5 -30 1.5 -41 q0 -3 -1 -7 q-1 -4 -6 -4 q-8 0 -13 0.5 q-5 0.5 -9 0.5 l-61 0 l-39 -1 q-1 0 -3.5 1.5 q-2.5 1.5 -4.5 6.5 q-1 3 -0.5 7 q0.5 4 1.5 9 q2 4 7 4 l90 0 l0 626 l-90 0 q-2 0 -4.5 0.5 q-2.5 0.5 -3.5 5.5 q-1 8 0 17 l1 1 q2 2 7 2 l125 0 q2 0 4 -3.5 q2 -3.5 2 -6.5 q-1 -11 -1.5 -28 q-0.5 -17 -1 -34.5 q-0.5 -17.5 -1 -34 q-0.5 -16.5 -0.5 -26.5 l0 -328 Z" /><glyph glyph-name="" unicode="^" d="M234 519 q2 3 6.5 6 q4.5 3 6.5 3 l6 0 q2 0 6.5 -3 q4.5 -3 6.5 -6 l174 -299 q1 -2 1 -5 q0 -3 -3 -3 l-22 0 q-7 0 -13 9 l0 -1 l-153 270 l-156 -266 q-2 -5 -5.5 -9 q-3.5 -4 -6.5 -4 l-23 1 q-2 0 -3.5 3 q-1.5 3 0.5 7 l0 -1 l178 298 Z" /><glyph glyph-name="" unicode="_" d="M15 15 q-7 0 -7 10 l0 11 q0 10 7 10 l368 0 q8 0 8 -10 l0 -11 q0 -10 -8 -10 l-368 0 Z" /><glyph glyph-name="" unicode="a" d="M84 307 q1 7 9 15 q26 15 54 23 q28 8 54 8 q26 0 49 -7 q23 -7 40 -19.5 q17 -12.5 27 -31 q10 -18.5 10 -42.5 q0 -14 -0.5 -41 q-0.5 -27 -1.5 -50 q-1 -23 -1 -42 q0 -19 0 -30 q0 -5 0 -11 q0 -6 1 -11 q1 -8 6 -18 q5 -10 16 -16 q8 -4 15.5 -5 q7.5 -1 14.5 -1 q5 0 3 -4 q-2 -4 -7 -6 l1 0 q-15 -4 -37 -4 q-19 0 -29.5 18 q-10.5 18 -15.5 40 q-36 -32 -72.5 -49 q-36.5 -17 -67.5 -17 q-30 0 -50 8 q-20 8 -32 20.5 q-12 12.5 -17 27.5 q-5 15 -5 30 q0 28 17 47.5 q17 19.5 43 33 q26 13.5 57 22.5 q31 9 60 16 q11 3 23 6 q12 3 20 6 q15 6 22 14 q7 8 7 16 q0 16 -8 29.5 q-8 13.5 -21.5 23 q-13.5 9.5 -31 14.5 q-17.5 5 -35.5 5 q-34 0 -59.5 -12 q-25.5 -12 -47.5 -25 q-6 -4 -9 2 q-1 2 -1.5 7.5 q-0.5 5.5 0.5 9.5 ZM297 198 q-36 -7 -74 -15.5 q-38 -8.5 -69.5 -20.5 q-31.5 -12 -51.5 -29 q-20 -17 -20 -41 q0 -20 15.5 -37.5 q15.5 -17.5 54.5 -17.5 q17 0 37 6 q20 6 39.5 15 q19.5 9 36.5 20.5 q17 11.5 29 22.5 l3 97 Z" /><glyph glyph-name="" unicode="b" d="M374 190 q0 23 -8 46.5 q-8 23.5 -24 43 q-16 19.5 -41 32 q-25 12.5 -58 12.5 q-25 0 -50.5 -10.5 q-25.5 -10.5 -46.5 -29.5 q-21 -19 -34.5 -45.5 q-13.5 -26.5 -13.5 -57.5 q0 -75 38 -110.5 q38 -35.5 104 -35.5 q25 0 49.5 9.5 q24.5 9.5 43 29 q18.5 19.5 30 48.5 q11.5 29 11.5 68 ZM98 25 q0 -6 -1 -7.5 q-1 -1.5 -3 -2.5 q-4 -1 -12.5 -1.5 q-8.5 -0.5 -14.5 0.5 q-2 2 -3.5 3.5 q-1.5 1.5 -1.5 3.5 q0 4 0 15.5 q0 11.5 1 25.5 q1 15 1.5 32.5 q0.5 17.5 0.5 24.5 l0 263 q0 2 0 11.5 q0 9.5 -1 23.5 q0 4 -0.5 7.5 q-0.5 3.5 -0.5 7.5 q-1 15 -1 31 q0 16 0 19 q0 4 4 8 l30 0 q4 -4 4 -8 q0 -6 -0.5 -19 q-0.5 -13 -1 -28.5 q-0.5 -15.5 -0.5 -30 q0 -14.5 0 -22.5 l0 -128 q11 24 28.5 42.5 q17.5 18.5 37.5 31 q20 12.5 40 19 q20 6.5 36 6.5 q47 0 79 -17 q32 -17 52 -41.5 q20 -24.5 28.5 -53 q8.5 -28.5 8.5 -51.5 q0 -45 -13.5 -79 q-13.5 -34 -37 -57.5 q-23.5 -23.5 -54 -35.5 q-30.5 -12 -63.5 -12 q-47 0 -82 21.5 q-35 21.5 -60 54.5 l0 -57 Z" /><glyph glyph-name="" unicode="c" d="M47 179 q0 37 13 68.5 q13 31.5 37.5 54 q24.5 22.5 58.5 36 q34 13.5 76 15.5 q34 2 66.5 -3.5 q32.5 -5.5 55.5 -15.5 q6 -6 4 -15 q-1 -5 -5 -12.5 q-4 -7.5 -8 -5.5 q-23 11 -51.5 18.5 q-28.5 7.5 -60.5 6.5 q-36 0 -64.5 -11.5 q-28.5 -11.5 -48.5 -31 q-20 -19.5 -31 -46.5 q-11 -27 -11 -58 q0 -23 7.5 -48 q7.5 -25 25 -46 q17.5 -21 46 -34.5 q28.5 -13.5 71.5 -13.5 q81 0 131 35 q1 -5 2 -12.5 q1 -7.5 1 -14.5 q0 -7 -9 -11 q-35 -17 -73 -22.5 q-38 -5.5 -58 -5.5 q-31 0 -62.5 10.5 q-31.5 10.5 -56.5 32 q-25 21.5 -40.5 54 q-15.5 32.5 -15.5 76.5 Z" /><glyph glyph-name="" unicode="d" d="M78 190 q0 -39 11.5 -68 q11.5 -29 30.5 -48.5 q19 -19.5 43 -29 q24 -9.5 49 -9.5 q66 0 104.5 35.5 q38.5 35.5 38.5 110.5 q0 31 -13.5 57.5 q-13.5 26.5 -34.5 45.5 q-21 19 -47 29.5 q-26 10.5 -51 10.5 q-33 0 -58 -12.5 q-25 -12.5 -41 -32 q-16 -19.5 -24 -43 q-8 -23.5 -8 -46.5 ZM355 82 q-26 -33 -61.5 -54.5 q-35.5 -21.5 -81.5 -21.5 q-33 0 -63.5 12 q-30.5 12 -54 35.5 q-23.5 23.5 -37 57.5 q-13.5 34 -13.5 79 q0 23 9 51.5 q9 28.5 28.5 53 q19.5 24.5 51.5 41.5 q32 17 79 17 q16 0 36.5 -5.5 q20.5 -5.5 40.5 -17.5 q20 -12 37.5 -31 q17.5 -19 28.5 -46 l0 129 q0 7 0 20.5 q0 13.5 -0.5 28.5 q-0.5 15 -1 29 q-0.5 14 -0.5 22 q0 2 0.5 5 q0.5 3 2.5 3 l30 0 q4 -4 4 -8 q0 -3 -0.5 -18 q-0.5 -15 -1.5 -32 q-1 -16 -1 -32 q0 -16 0 -18 l0 -263 q0 -8 0.5 -24 q0.5 -16 1.5 -33 q1 -13 1 -25.5 q0 -12.5 0 -15.5 q0 -2 -6 -8 q-5 0 -12.5 0.5 q-7.5 0.5 -10.5 1.5 q-3 1 -4.5 2.5 q-1.5 1.5 -1.5 7.5 l0 57 Z" /><glyph glyph-name="" unicode="e" d="M71 179 q2 -39 16 -68 q14 -29 32 -45 l0 1 q21 -17 47.5 -24.5 q26.5 -7.5 55.5 -7.5 q26 0 57 6 q31 6 58 23 q5 2 8 0 q2 -1 3 -2 q1 -2 2 -7.5 q1 -5.5 0 -7.5 q-1 -9 -7 -12 q-25 -14 -57 -21.5 q-32 -7.5 -63 -7.5 q-39 0 -75.5 11 q-36.5 11 -62.5 37 q-21 20 -34.5 50.5 q-13.5 30.5 -13.5 84.5 q0 32 11.5 62 q11.5 30 33.5 52.5 q22 22.5 54.5 36 q32.5 13.5 75.5 13.5 q155 0 155 -163 q0 -11 -6 -11 l-290 0 ZM213 327 q-38 0 -63.5 -12.5 q-25.5 -12.5 -42 -31 q-16.5 -18.5 -24.5 -39.5 q-8 -21 -11 -38 l260 0 q-2 24 -9.5 46 q-7.5 22 -21.5 38.5 q-14 16.5 -35.5 26.5 q-21.5 10 -52.5 10 Z" /><glyph glyph-name="" unicode="f" d="M87 395 q3 26 9.5 52.5 q6.5 26.5 32.5 55.5 q17 17 43.5 32 q26.5 15 54.5 15 q2 0 2.5 -0.5 q0.5 -0.5 1.5 -5.5 q1 -4 0.5 -11 q-0.5 -7 -1.5 -11 q-1 0 -2.5 -1.5 q-1.5 -1.5 -2.5 -2.5 q-24 -2 -46.5 -12.5 q-22.5 -10.5 -36.5 -27.5 q-7 -10 -11.5 -22 q-4.5 -12 -7 -24 q-2.5 -12 -4 -22.5 q-1.5 -10.5 -1.5 -16.5 l0 -40 l84 0 q4 0 4 -4 l0 -3 q0 -3 -0.5 -7 q-0.5 -4 -0.5 -7 q0 -3 -3 -5 q-3 -2 -5 -1 l-31 0 q-9 0 -18 0.5 q-9 0.5 -16 0.5 l-14 0 q0 -28 0 -58.5 q0 -30.5 0.5 -56.5 q0.5 -26 0.5 -45.5 q0 -19.5 0 -26.5 l0 -97 q0 -5 0.5 -10 q0.5 -5 0.5 -12 q0 -4 -3 -8 l-26 0 q-5 2 -5 9 q0 18 0.5 31 q0.5 13 0.5 25.5 q0 12.5 0 27 q0 14.5 0 34.5 l0 187 l-55 0 q-5 0 -5 5 q0 4 1 10.5 q1 6.5 4 11.5 q6 0 15.5 -0.5 q9.5 -0.5 17.5 -0.5 l21 0 l1 0 l0 42 Z" /><glyph glyph-name="" unicode="g" d="M79 185 q0 -38 12 -66.5 q12 -28.5 31 -47 q19 -18.5 42.5 -28 q23.5 -9.5 47.5 -9.5 q28 0 50.5 12.5 q22.5 12.5 39 32 q16.5 19.5 25.5 44 q9 24.5 9 48.5 q0 25 -6.5 52.5 q-6.5 27.5 -20.5 50 q-14 22.5 -38 37 q-24 14.5 -58 14.5 q-37 0 -62.5 -15 q-25.5 -15 -41.5 -36.5 q-16 -21.5 -23 -46 q-7 -24.5 -7 -42.5 ZM174 -152 q33 0 62.5 12.5 q29.5 12.5 52 37.5 q22.5 25 36.5 61.5 q14 36.5 17 84.5 q0 9 0.5 22 q0.5 13 0.5 24 q-9 -15 -23.5 -30 q-14.5 -15 -32 -27 q-17.5 -12 -37 -19.5 q-19.5 -7.5 -38.5 -7.5 q-40 0 -70.5 14.5 q-30.5 14.5 -51 38.5 q-20.5 24 -31 55.5 q-10.5 31.5 -10.5 65.5 q0 32 11.5 63 q11.5 31 32.5 55 q21 24 51 39 q30 15 67 15 q26 0 47.5 -7.5 q21.5 -7.5 38 -18 q16.5 -10.5 28.5 -23.5 q12 -13 18 -23 l0 57 q-1 7 3 8 q10 2 23 0 q4 -1 4 -8 q0 -5 -0.5 -10.5 q-0.5 -5.5 -0.5 -11.5 l0 -22 q-1 -17 -1 -39 q0 -22 0 -54 l0 -34 q0 -22 0 -56 q0 -34 -1 -72 q-2 -40 -13.5 -79.5 q-11.5 -39.5 -35 -70.5 q-23.5 -31 -60 -50.5 q-36.5 -19.5 -87.5 -19.5 q-46 0 -79.5 15.5 q-33.5 15.5 -50.5 30.5 q-2 2 -3.5 6 q-1.5 4 -1.5 8 q1 12 3 17 q2 2 5.5 3.5 q3.5 1.5 6.5 -1.5 l0 1 l9 -7 q17 -14 41.5 -28.5 q24.5 -14.5 69.5 -14.5 Z" /><glyph glyph-name="" unicode="h" d="M111 267 q8 11 18.5 22.5 q10.5 11.5 15.5 15.5 q19 17 46.5 32.5 q27.5 15.5 70.5 15.5 q29 0 50 -10 q21 -10 35 -26.5 q14 -16.5 21 -38 q7 -21.5 9 -45.5 q2 -16 1.5 -31.5 q-0.5 -15.5 -0.5 -25.5 l0 -86 q0 -14 0.5 -27 q0.5 -13 0.5 -24 l0 -18 q0 -6 -8 -8 q-3 -1 -8.5 -1.5 q-5.5 -0.5 -10.5 0.5 q-6 0 -6 8 q0 8 0 28 q0 20 0 42 q0 22 0.5 41.5 q0.5 19.5 0.5 27.5 l0 52 q-2 25 -7 46 q-5 21 -16.5 36 q-11.5 15 -29.5 23.5 q-18 8.5 -45 8.5 q-17 0 -36 -8 q-19 -8 -37 -20.5 q-18 -12.5 -35 -29 q-17 -16.5 -30 -33.5 l0 -75 q0 -12 0 -30 q0 -18 0 -37.5 q0 -19.5 0.5 -38.5 q0.5 -19 0.5 -32 q0 -6 -6 -8 q-5 -1 -12.5 -1.5 q-7.5 -0.5 -11.5 0.5 q-5 0 -5 7 l0 33 q0 10 0.5 19 q0.5 9 0.5 16 q1 19 1 37 q0 18 0 35 l0 222 q0 10 0 24.5 q0 14.5 -1 27.5 q0 7 -0.5 13.5 q-0.5 6.5 -0.5 13.5 l0 22 q0 6 6 8 q5 1 13 1 q8 0 13 -1 q5 -2 5 -9 q0 -20 -0.5 -48 q-0.5 -28 -2.5 -49 l0 -117 Z" /><glyph glyph-name="" unicode="i" d="M99 338 q0 6 3 8 q5 1 13 1 q8 0 13 -1 l0 -25 q0 -8 -0.5 -16 q-0.5 -8 -0.5 -16 l0 -46 q0 -11 0.5 -26.5 q0.5 -15.5 0.5 -30.5 l0 -53 q0 -8 0.5 -19 q0.5 -11 0.5 -23 q1 -18 1 -39 q0 -21 0 -29 q0 -6 -4 -8 q-5 -1 -13 -1.5 q-8 -0.5 -13 -0.5 q-2 0 -2.5 17 q-0.5 17 -0.5 30 q0 11 0 23.5 q0 12.5 1 25.5 q0 5 0.5 13 q0.5 8 0.5 12 l0 204 ZM88 461 q0 11 7.5 20 q7.5 9 18.5 9 q11 0 19 -9 q8 -9 8 -20 q0 -10 -8 -18 q-8 -8 -19 -8 q-11 0 -18.5 8 q-7.5 8 -7.5 18 Z" /><glyph glyph-name="" unicode="j" d="M131 -12 q0 -14 -1 -32.5 q-1 -18.5 -5.5 -38 q-4.5 -19.5 -13.5 -38.5 q-9 -19 -25 -35 q-17 -16 -41.5 -27.5 q-24.5 -11.5 -39.5 -13.5 q-5 -1 -11 0 q-6 1 -10 6 q-2 2 -4.5 6.5 q-2.5 4.5 -4.5 14.5 q-1 4 1 6 l1 1 q36 4 64.5 18 q28.5 14 40.5 34 q8 16 12.5 40.5 q4.5 24.5 5.5 41.5 q0 24 0 62.5 q0 38.5 -0.5 77.5 q-0.5 39 -0.5 70.5 q0 31.5 0 41.5 l0 19 q0 7 -0.5 15 q-0.5 8 -0.5 16 q-1 14 -1 33 q0 19 0 32 q-2 4 1 6 q3 2 5 2 l25 0 q5 0 5 -7 q0 -8 -1 -24 q-1 -16 -1.5 -34 q-0.5 -18 -1 -34 q-0.5 -16 -0.5 -23 q0 -31 0 -53 q0 -22 0 -46 q0 -24 0.5 -55.5 q0.5 -31.5 1.5 -81.5 ZM90 461 q0 11 8 20 q8 9 19 9 q11 0 18.5 -9 q7.5 -9 7.5 -20 q0 -10 -7.5 -18 q-7.5 -8 -18.5 -8 q-12 0 -19.5 8 q-7.5 8 -7.5 18 Z" /><glyph glyph-name="" unicode="k" d="M110 179 q17 14 38.5 31 q21.5 17 40.5 33 q22 18 44 38 q17 15 31 27 q12 11 23 20 q11 9 14 12 q4 4 10 6 q5 2 15.5 2 q10.5 0 17.5 -1 q2 -1 3.5 -3.5 q1.5 -2.5 -1.5 -6.5 l-27 -22 q-5 -5 -12.5 -11 q-7.5 -6 -12.5 -10 l-19 -15 l0 1 q-8 -7 -24 -21 q-16 -14 -36 -30 l-40 -33 l13 8 l99 -101 l50 -47 l17 -16 l0 1 q5 -4 6 -6 q1 -2 6 -6 q5 -5 5.5 -10 q0.5 -5 -1.5 -6 q-9 -1 -20.5 -1.5 q-11.5 -0.5 -19.5 0.5 q-3 1 -6 2 q-3 1 -8 6 l-75 81 q-7 8 -17.5 20 q-10.5 12 -22 24.5 q-11.5 12.5 -22 23.5 q-10.5 11 -16.5 17 l-53 -44 q0 -7 0.5 -14.5 q0.5 -7.5 0.5 -15.5 q0 -24 0.5 -49.5 q0.5 -25.5 1.5 -39.5 l0 1 q2 -3 -0.5 -5.5 q-2.5 -2.5 -4.5 -3.5 q-5 -1 -12 -1.5 q-7 -0.5 -12 0.5 q-8 0 -5 8 l0 -1 q0 6 0.5 20 q0.5 14 1 33 q0.5 19 0.5 41.5 q0 22.5 0 46.5 l0 186 q0 12 -0.5 32 q-0.5 20 -0.5 40.5 q0 20.5 0 36.5 q0 16 0 20 q0 10 4 12 q5 1 13 1 q8 0 13 -1 q3 -2 3 -12 l0 -15 q0 -9 -0.5 -21 q-0.5 -12 -0.5 -20 q-1 -22 -1 -43 q0 -21 0 -29 l-1 -170 Z" /><glyph glyph-name="" unicode="l" d="M130 169 q0 -10 0 -32 q0 -22 1 -42 q0 -14 0.5 -27 q0.5 -13 0.5 -24 l0 -22 q0 -6 -4 -8 q-4 -1 -12.5 -1 q-8.5 0 -13.5 0 q-5 0 -5 8 q0 11 0 32 q0 21 1 44 q0 11 0.5 26.5 q0.5 15.5 0.5 23.5 l0 283 q0 8 -0.5 15 q-0.5 7 -0.5 14 l0 22 q0 4 4 8 l22 0 q2 -2 3.5 -4 q1.5 -2 1.5 -4 l0 -22 q0 -7 -0.5 -14 q-0.5 -7 -0.5 -15 l0 -49 q0 -3 0 -14 q0 -11 0 -26.5 q0 -15.5 0.5 -34 q0.5 -18.5 0.5 -37.5 q0 -45 1 -100 Z" /><glyph glyph-name="" unicode="m" d="M240 353 q38 0 68 -21.5 q30 -21.5 44 -56.5 q31 35 68 56.5 q37 21.5 76 21.5 q30 0 51 -10 q21 -10 34.5 -26.5 q13.5 -16.5 20 -38 q6.5 -21.5 8.5 -45.5 q2 -16 1.5 -31.5 q-0.5 -15.5 -0.5 -25.5 l0 -17 q0 -8 0 -28.5 q0 -20.5 1 -40.5 q0 -14 0.5 -27 q0.5 -13 0.5 -24 l0 -18 q0 -3 -3 -5 q-3 -2 -5 -3 q-3 -1 -10.5 -1.5 q-7.5 -0.5 -10.5 0.5 q-4 2 -4 8 q0 8 0 28 q0 20 0.5 42 q0.5 22 1 41.5 q0.5 19.5 0.5 27.5 l0 52 q-2 25 -7.5 46 q-5.5 21 -16.5 36 q-11 15 -29.5 23.5 q-18.5 8.5 -45.5 8.5 q-29 0 -60.5 -20 q-31.5 -20 -47.5 -46 q-9 -17 -14 -33 q-3 -9 -5 -18 q-1 -25 -1 -49.5 q0 -24.5 0 -35.5 l0 -103 q0 -8 -5 -8 l-21 0 q-4 0 -4 8 l0 66 l1 125 q0 50 -21 82 q-21 32 -68 32 q-26 0 -46.5 -9.5 q-20.5 -9.5 -37.5 -25.5 q-17 -14 -32 -36.5 q-15 -22.5 -17 -45.5 l0 -129 q0 -6 0.5 -13 q0.5 -7 0.5 -14 l0 -30 q0 -5 -6 -7 q-5 -1 -13.5 -1.5 q-8.5 -0.5 -11.5 -0.5 q-2 0 -3.5 2.5 q-1.5 2.5 -0.5 5.5 l0 6 q0 2 0.5 4 q0.5 2 0.5 4 q1 17 1.5 33.5 q0.5 16.5 0.5 23.5 l0 124 l-4 123 q-1 7 3 8 q4 1 13.5 1 q9.5 0 14.5 -1 q5 -2 5 -8 l0 -74 q28 41 63.5 64 q35.5 23 70.5 24 l1 0 Z" /><glyph glyph-name="" unicode="n" d="M347 211 q1 50 -21.5 82 q-22.5 32 -76.5 32 q-17 0 -35.5 -8 q-18.5 -8 -36.5 -20.5 q-18 -12.5 -35 -29 q-17 -16.5 -31 -33.5 l0 -17 l0 -125 q0 -5 0 -17 q0 -12 1 -23 q0 -6 0.5 -11.5 q0.5 -5.5 0.5 -10.5 l0 -7 q2 -4 -1 -6 q-3 -2 -5 -2 q-5 -1 -13 -1.5 q-8 -0.5 -12 -0.5 q-5 0 -5 8 q0 5 0.5 12.5 q0.5 7.5 1.5 14.5 l0 6 q1 12 1.5 22.5 q0.5 10.5 0.5 15.5 l0 124 l-4 123 q-2 8 5 8 q6 1 13.5 1 q7.5 0 12.5 -1 q5 -2 5 -8 l-1 -70 q9 11 18.5 22 q9.5 11 14.5 14 q19 17 46.5 32.5 q27.5 15.5 70.5 15.5 q30 0 51.5 -10 q21.5 -10 36 -26.5 q14.5 -16.5 21.5 -38.5 q7 -22 7 -45 l0 -155 q0 -6 0.5 -13 q0.5 -7 0.5 -14 l0 -30 q0 -6 -4 -7 q-5 -1 -13.5 -1 q-8.5 0 -13.5 0 q-5 0 -5 6 l0 10 q0 3 0.5 6 q0.5 3 0.5 5 q1 16 1.5 30.5 q0.5 14.5 0.5 20.5 l1 120 Z" /><glyph glyph-name="" unicode="o" d="M45 179 q0 32 6 53.5 q6 21.5 15 38.5 q22 36 66 58 q44 22 96 22 q36 0 63 -8.5 q27 -8.5 47 -21.5 q20 -13 33.5 -29.5 q13.5 -16.5 21.5 -31.5 q8 -16 13 -36.5 q5 -20.5 5 -44.5 q0 -28 -10 -62 q-10 -34 -35 -57 q-32 -30 -64.5 -43 q-32.5 -13 -73.5 -13 q-49 0 -87 18 q-38 18 -61 44 q-16 18 -25.5 45.5 q-9.5 27.5 -9.5 67.5 ZM81 179 q0 -29 7.5 -52.5 q7.5 -23.5 19.5 -42.5 q18 -26 49 -37.5 q31 -11.5 71 -11.5 q34 0 63.5 9 q29.5 9 50.5 35 q20 25 26 54 q6 29 6 46 q0 7 -2 19.5 q-2 12.5 -6 26 q-4 13.5 -9.5 26.5 q-5.5 13 -12.5 23 q-17 20 -44 35.5 q-27 15.5 -72 15.5 q-48 0 -76.5 -16.5 q-28.5 -16.5 -42.5 -34.5 q-19 -24 -23.5 -51.5 q-4.5 -27.5 -4.5 -43.5 Z" /><glyph glyph-name="" unicode="p" d="M102 275 q7 11 19 24.5 q12 13.5 29.5 25.5 q17.5 12 39.5 20.5 q22 8.5 48 8.5 q37 0 66 -13.5 q29 -13.5 49.5 -37.5 q20.5 -24 31 -57 q10.5 -33 10.5 -73 q0 -33 -9.5 -63 q-9.5 -30 -29 -53 q-19.5 -23 -49 -37 q-29.5 -14 -69.5 -14 q-37 0 -74.5 24 q-37.5 24 -61.5 62 l0 -100 q0 -9 0 -28.5 q0 -19.5 0 -42.5 q0 -23 0.5 -47.5 q0.5 -24.5 1.5 -42.5 q0 -7 -6 -9 q-6 -1 -15 -1.5 q-9 -0.5 -11 -0.5 q-4 0 -4 8 l2 83 q0 20 0.5 40 q0.5 20 1.5 41 l0 242 q-1 15 -1.5 34.5 q-0.5 19.5 -0.5 34.5 q0 5 -0.5 9.5 q-0.5 4.5 -0.5 9.5 l0 17 q0 5 4 7 q5 1 11.5 1.5 q6.5 0.5 9.5 -0.5 q9 -2 8 -8 l0 -64 ZM366 173 q0 26 -7 53.5 q-7 27.5 -22 50 q-15 22.5 -39.5 36.5 q-24.5 14 -59.5 14 q-34 0 -59 -14.5 q-25 -14.5 -41 -37 q-16 -22.5 -23.5 -50 q-7.5 -27.5 -7.5 -52.5 q0 -33 13.5 -58.5 q13.5 -25.5 33 -43 q19.5 -17.5 42.5 -26.5 q23 -9 42 -9 q24 0 47 8.5 q23 8.5 41 25.5 q18 17 29 42.5 q11 25.5 11 60.5 Z" /><glyph glyph-name="" unicode="q" d="M329 339 q-1 6 8 8 q3 1 9.5 0.5 q6.5 -0.5 11.5 -1.5 q4 -2 4 -7 l0 -17 q0 -5 -0.5 -9.5 q-0.5 -4.5 -0.5 -9.5 q0 -17 -0.5 -34.5 q-0.5 -17.5 -1.5 -34.5 l0 -242 q1 -19 1.5 -41 q0.5 -22 0.5 -40 l2 -83 q0 -8 -4 -8 q-2 0 -11 0.5 q-9 0.5 -15 1.5 q-6 2 -6 9 q1 18 1.5 42.5 q0.5 24.5 0.5 47.5 q0 23 0 42.5 q0 19.5 0 28.5 l0 100 q-24 -38 -61.5 -62 q-37.5 -24 -74.5 -24 q-40 0 -69.5 14 q-29.5 14 -49 37 q-19.5 23 -29 53 q-9.5 30 -9.5 63 q0 40 10.5 73 q10.5 33 31 57 q20.5 24 49.5 37.5 q29 13.5 66 13.5 q26 0 48 -8.5 q22 -8.5 39.5 -20.5 q17.5 -12 29.5 -25.5 q12 -13.5 19 -24.5 l0 64 ZM65 173 q0 -35 11 -60.5 q11 -25.5 29 -42.5 q18 -17 41 -25.5 q23 -8.5 47 -8.5 q19 0 42 9 q23 9 42.5 26.5 q19.5 17.5 33 43 q13.5 25.5 13.5 58.5 q0 25 -7.5 52.5 q-7.5 27.5 -23.5 50 q-16 22.5 -41 37 q-25 14.5 -59 14.5 q-35 0 -59.5 -14 q-24.5 -14 -39.5 -36.5 q-15 -22.5 -22 -50 q-7 -27.5 -7 -53.5 Z" /><glyph glyph-name="" unicode="r" d="M109 234 l0 -133 q0 -8 0.5 -16.5 q0.5 -8.5 0.5 -16.5 l0 -45 q0 -6 -7 -8 q-4 -1 -10.5 -1.5 q-6.5 -0.5 -9.5 -0.5 q-5 2 -5 9 l0 12 q0 7 0.5 15 q0.5 8 0.5 14 q1 15 1 30 q0 15 0 24 l0 128 q-1 4 -1 10.5 q0 6.5 0 12.5 q0 6 -0.5 12.5 q-0.5 6.5 -0.5 11.5 q0 7 -0.5 14 q-0.5 7 -0.5 14 l0 18 q0 6 6 8 q4 1 11.5 1 q7.5 0 10.5 -1 q6 0 6 -8 l-2 -66 q20 32 50 52.5 q30 20.5 56 25.5 q7 2 15 2.5 q8 0.5 13 0.5 q2 -4 2 -11 q0 -7 -0.5 -13.5 q-0.5 -6.5 -2.5 -9.5 l-7 -7 q-14 2 -33 -1 q-19 -3 -38 -14 q-13 -8 -27 -23.5 q-14 -15.5 -21 -25.5 l-7 -14 Z" /><glyph glyph-name="" unicode="s" d="M48 63 q4 7 12 3 q16 -10 44 -20.5 q28 -10.5 59 -10.5 q42 0 64 21 q22 21 22 47 q0 14 -10 25.5 q-10 11.5 -25 21 q-15 9.5 -33 17 q-18 7.5 -34 12.5 q-18 7 -35.5 15 q-17.5 8 -30.5 19.5 q-13 11.5 -21 26.5 q-8 15 -8 36 q0 32 32 54.5 q32 22.5 82 22.5 q19 0 39 -2.5 q20 -2.5 37 -8.5 q3 -2 5.5 -4 q2.5 -2 1.5 -8 q0 -7 -3 -14 q-2 -4 -2 -5 q-1 -5 -5 -4 q-4 1 -6 3 l0 -1 q-19 11 -33 14.5 q-14 3.5 -34 3.5 q-29 0 -46 -6 q-17 -6 -26 -14.5 q-9 -8.5 -12 -17 q-3 -8.5 -3 -13.5 q0 -14 10 -26 q10 -12 23.5 -21 q13.5 -9 28.5 -15.5 q15 -6.5 26 -10.5 l16 -6 q17 -6 34 -13.5 q17 -7.5 30.5 -18 q13.5 -10.5 22 -25.5 q8.5 -15 8.5 -37 q0 -45 -33 -71 q-33 -26 -84 -26 q-33 0 -61.5 7 q-28.5 7 -48.5 15 q-6 1 -6 12 q0 9 0.5 13.5 q0.5 4.5 2.5 9.5 Z" /><glyph glyph-name="" unicode="t" d="M84 314 l-51 0 q-5 0 -5 5 l0 11 q0 11 6 11 q3 0 9 -0.5 q6 -0.5 12 -0.5 l15 0 l15 0 q0 12 -0.5 28.5 q-0.5 16.5 -0.5 31.5 q-1 18 -1 36 q0 8 8 8 q4 1 10 1 q6 0 9 -1 q6 -2 6 -8 l-3 -96 l73 0 q3 0 6.5 0.5 q3.5 0.5 6.5 0.5 q5 0 5.5 -3 q0.5 -3 0.5 -4 q0 -5 -1 -12.5 q-1 -7.5 -7 -8.5 l-31 1 l-53 0 q0 -42 0.5 -83 q0.5 -41 0.5 -82 q2 -30 6 -53.5 q4 -23.5 19 -35.5 q12 -11 31.5 -15 q19.5 -4 53.5 -5 q-1 -6 -3 -13.5 q-2 -7.5 -4 -9.5 q-7 -10 -10 -11 q-7 0 -19 1.5 q-12 1.5 -26 5.5 q-14 4 -28 11.5 q-14 7.5 -25 19.5 q-9 11 -14.5 28.5 q-5.5 17.5 -8 37 q-2.5 19.5 -3.5 38.5 q-1 19 -1 33 l2 133 Z" /><glyph glyph-name="" unicode="u" d="M377 21 q1 -2 -5 -8 l-25 0 q-2 1 -4 3.5 q-2 2.5 -2 4.5 l0 68 q-9 -11 -18 -22 q-9 -11 -14 -14 q-20 -17 -47 -32 q-27 -15 -71 -15 q-30 0 -51.5 10 q-21.5 10 -35.5 26.5 q-14 16.5 -21 38.5 q-7 22 -7 45 q0 34 0 57.5 q0 23.5 0.5 39 q0.5 15.5 0.5 24.5 q0 9 0 14 l0 77 q0 8 5 8 q4 1 10.5 1 q6.5 0 10.5 -1 q5 -3 5 -8 q-1 -8 -1 -17 q0 -9 0 -17 l0 -32 l-1 -125 q0 -50 22 -81.5 q22 -31.5 77 -31.5 q17 0 35.5 7.5 q18.5 7.5 36.5 20 q18 12.5 35 28.5 q17 16 30 34 l0 159 q0 6 -0.5 12.5 q-0.5 6.5 -0.5 13.5 l0 30 q-1 4 6 8 l25 0 q4 0 4 -6 l0 -9 q0 -3 -0.5 -6.5 q-0.5 -3.5 -0.5 -6.5 q-1 -15 -1.5 -29.5 q-0.5 -14.5 -0.5 -20.5 l0 -124 l4 -124 Z" /><glyph glyph-name="" unicode="v" d="M195 13 q-7 2 -12 12 q-7 14 -13 27.5 q-6 13.5 -12 27.5 l-10 24 q-24 54 -53 118 q-29 64 -57 118 q-1 3 0 4 q0 1 1 2 q5 1 15 1 q10 0 16 -1 q6 -2 11 -7 q32 -82 63 -154.5 q31 -72.5 60 -132.5 q24 43 45 89 q21 46 38 86 q1 3 3 7.5 q2 4.5 4 7.5 l10 24 q9 21 16.5 39.5 q7.5 18.5 14.5 32.5 l0 -1 q1 4 4.5 6 q3.5 2 6.5 3 q14 2 25 0 q2 -1 2 -4 l0 -3 q-11 -23 -22 -46 q-11 -23 -22 -46 l-22 -46 q-22 -45 -42.5 -88 q-20.5 -43 -40.5 -88 q-5 -8 -11 -12 l-18 0 Z" /><glyph glyph-name="" unicode="w" d="M172 11 q-4 2 -9 10 l-11 28 l-6 14 l0 -1 l-7 17 l-16 39 l-21 51 l-21 50 q-14 30 -27 61 q-13 31 -24 60 l2 4 q2 4 4 4 q4 1 10.5 1 q6.5 0 10.5 -1 q2 0 6 -1.5 q4 -1.5 6 -6.5 q17 -52 41 -110.5 q24 -58.5 44 -107.5 q4 -8 9 -19.5 q5 -11.5 7 -18.5 l12 -32 q31 68 63 144.5 q32 76.5 55 140.5 l0 -1 q2 11 10 11 l19 0 q8 0 10 -9 l0 1 q11 -35 22.5 -68.5 q11.5 -33.5 24 -68 q12.5 -34.5 27 -71 q14.5 -36.5 31.5 -78.5 q27 59 49 108.5 q22 49.5 37 82.5 l8 19 l9 21 q4 9 9 21 q5 12 10 21 l6 11 l0 -1 q1 4 5 6.5 q4 2.5 7 4.5 q4 1 9.5 1.5 q5.5 0.5 8.5 -0.5 q2 -1 5 -3.5 q3 -2.5 1 -6.5 q-26 -54 -55.5 -114.5 q-29.5 -60.5 -52.5 -113.5 q0 -1 -0.5 -2 q-0.5 -1 -0.5 -2 l-15 -34 q-3 -3 -3 -6 l-23 -48 q-5 -7 -11 -7 l-10 0 q-7 0 -11 10 l-43 112 l-38 99 q-4 9 -7.5 19.5 q-3.5 10.5 -6.5 19.5 l-13 35 q-8 -17 -16 -37.5 q-8 -20.5 -18 -43.5 q-4 -11 -9.5 -23.5 q-5.5 -12.5 -9.5 -21.5 l-6 -16 l-34 -81 l-14 -35 l-5 -11 q-1 -1 -1 -2 l0 -1 q-1 -7 -5 -13 q-4 -5 -7.5 -7.5 q-3.5 -2.5 -4.5 -2.5 l-16 0 Z" /><glyph glyph-name="" unicode="x" d="M50 24 q11 14 24.5 28.5 q13.5 14.5 27.5 29.5 l-1 0 q21 25 42 50 q21 25 43 50 l-92 113 l-17 19 l-17 21 q-3 4 -3 7.5 q0 3.5 4 3.5 l24 0 q10 -3 16 -10 l25 -32 l80 -98 q21 25 42 49 q21 24 41 49 q6 8 12.5 16.5 q6.5 8.5 12.5 15.5 q6 7 16 10 l24 0 q4 0 4 -3.5 q0 -3.5 -3 -7.5 q-4 -5 -8.5 -10.5 q-4.5 -5.5 -8.5 -10.5 l-17 -19 q-23 -28 -46.5 -57 q-23.5 -29 -46.5 -58 l81 -98 l-1 0 q14 -15 27.5 -29.5 q13.5 -14.5 24.5 -28.5 l-1 0 q8 -9 1 -11 l-31 0 q-3 1 -7 3 q-4 2 -7 6 l-40 51 l-68 83 l-72 -83 l-40 -51 q-6 -7 -14 -9 l-31 0 q-2 1 -2.5 4 q-0.5 3 3.5 7 l-1 0 Z" /><glyph glyph-name="" unicode="y" d="M343 334 q4 8 7.5 10 q3.5 2 5.5 2 q5 1 12 1 q7 0 10 -1 q5 -1 5.5 -5.5 q0.5 -4.5 -1.5 -8.5 q-2 -5 -4 -10 q-2 -5 -7 -13 q-4 -7 -9 -18 q-5 -11 -9 -17 q-18 -35 -34.5 -68.5 q-16.5 -33.5 -37.5 -75.5 q-21 -42 -48.5 -98 q-27.5 -56 -66.5 -135 l-17 -35 l-18 -33 q-2 -2 -6 -5.5 q-4 -3.5 -6 -3.5 l-24 0 q-8 3 -1 12 l12 22 l15 26 l15 27 q7 12 21 37 q14 25 34 65 l-114 241 l-38 79 q-2 5 -2.5 10 q-0.5 5 3.5 7 l27 0 q2 -1 5.5 -4 q3.5 -3 5.5 -8 l21 -52 l108 -243 q42 85 110 235 l26 60 Z" /><glyph glyph-name="" unicode="z" d="M53 38 q32 34 73 82 q41 48 83 99 l78 92 l-212 0 q-4 0 -6 5 q-1 2 -1 7.5 q0 5.5 1 8.5 q2 7 6 7 l259 0 q3 0 4.5 -4 q1.5 -4 -3.5 -11 l-23 -27 l-214 -252 l104 0 q13 0 35.5 0.5 q22.5 0.5 45.5 0.5 q23 0 41.5 0 q18.5 0 24.5 0 q4 0 4 -9.5 q0 -9.5 -1 -11.5 l0 1 q-2 -9 -5 -9 l-290 0 q-8 0 -8.5 8 q-0.5 8 4.5 13 Z" /><glyph glyph-name="" unicode="{" d="M64 167 q0 7 6 9 q23 5 36 22 q15 22 15 54 l0 175 q0 47 13 60 q16 16 40 16 l34 0 q3 0 3 -6 l0 -14 q0 -4 -5 -6 q-11 0 -23 -2 q-12 -2 -18 -8 q-11 -11 -13 -25.5 q-2 -14.5 -2 -28.5 l0 -156 q0 -17 -3 -30.5 q-3 -13.5 -9 -21.5 q-8 -10 -22 -19 q-14 -9 -38 -17 q25 -8 38.5 -17 q13.5 -9 21.5 -20 q12 -20 12 -53 l0 -160 q0 -14 2 -29.5 q2 -15.5 13 -26.5 q6 -6 18 -8.5 q12 -2.5 23 -3.5 q5 -3 5 -6 l0 -16 q0 -7 -5 -7 l-32 0 q-12 0 -22 4.5 q-10 4.5 -18 11.5 q-13 16 -13 60 l0 185 q0 15 -3.5 29.5 q-3.5 14.5 -11.5 25.5 q-12 16 -37 23 q-5 2 -5 6 Z" /><glyph glyph-name="" unicode="|" d="M125 488 q0 5 3 5 l17 0 q4 0 4 -5 l0 -478 q0 -6 -4 -6 l-17 0 q-3 0 -3 6 l0 478 Z" /><glyph glyph-name="" unicode="}" d="M211 167 q0 -4 -5 -6 q-25 -7 -37 -23 q-8 -11 -11.5 -25.5 q-3.5 -14.5 -3.5 -29.5 l0 -185 q0 -44 -13 -60 q-8 -7 -18 -11.5 q-10 -4.5 -22 -4.5 l-32 0 q-5 0 -5 7 l0 16 q0 3 5 6 q11 1 23 3.5 q12 2.5 18 8.5 q11 11 13 26.5 q2 15.5 2 29.5 l0 160 q0 33 12 53 q8 11 21.5 20 q13.5 9 38.5 17 q-24 8 -38 17 q-14 9 -22 19 q-6 8 -9 21.5 q-3 13.5 -3 30.5 l0 156 q0 14 -2 28.5 q-2 14.5 -13 25.5 q-6 6 -18 8 q-12 2 -23 2 q-5 2 -5 6 l0 14 q0 6 3 6 l34 0 q24 0 40 -16 q13 -13 13 -60 l0 -175 q0 -32 15 -54 q13 -17 36 -22 q6 -2 6 -9 Z" /><glyph glyph-name="" unicode="~" d="M164 511 q-31 0 -44.5 -8.5 q-13.5 -8.5 -29.5 -21.5 q-2 -1 -4 -2 q-2 -1 -6 6 q-4 8 1 13 q15 18 37.5 31.5 q22.5 13.5 44.5 13.5 q19 0 37 -6 q18 -6 35 -14 l23 -10 l-1 0 q15 -7 35 -13.5 q20 -6.5 46 -6.5 q23 0 39.5 9.5 q16.5 9.5 29.5 23.5 q2 2 4 0 q2 -2 4 -5 q5 -8 -1 -16 q-14 -17 -34 -31 q-20 -14 -43 -14 q-23 0 -45 9 q-22 9 -43 18 q-19 9 -40.5 16.5 q-21.5 7.5 -44.5 7.5 Z" /><glyph glyph-name="" unicode="&#x2014;" d="M105 103 q-3 0 -3 6 l0 13 q0 6 3 6 l789 0 q3 0 3 -6 l0 -13 q0 -6 -3 -6 l-789 0 Z" /><glyph glyph-name="" unicode="&#x2018;" d="M715 529 q0 13 4.5 28 q4.5 15 12.5 28.5 q8 13.5 18.5 25.5 q10.5 12 22.5 20 q1 1 2 -1.5 q1 -2.5 0 -4.5 q-17 -18 -24.5 -33 q-7.5 -15 -9.5 -24 l-1 -2 l0 -2 q-2 -22 19 -32 q7 -2 10 -7.5 q3 -5.5 1 -10.5 q-1 -5 -8 -8.5 q-7 -3.5 -15 -3.5 q-14 2 -22.5 7.5 q-8.5 5.5 -9.5 19.5 Z" /><glyph glyph-name="" unicode="&#x201c;" d="M715 532 q0 13 4.5 28 q4.5 15 12.5 28.5 q8 13.5 18.5 25.5 q10.5 12 22.5 20 q1 1 2 -1.5 q1 -2.5 0 -4.5 q-17 -18 -24.5 -33 q-7.5 -15 -9.5 -24 l-1 -2 l0 -2 q-2 -22 19 -32 q7 -2 10 -7.5 q3 -5.5 1 -10.5 q-1 -5 -8 -8.5 q-7 -3.5 -15 -3.5 q-14 2 -22.5 7.5 q-8.5 5.5 -9.5 19.5 ZM624 532 q0 13 5 28 q5 15 14 28.5 q9 13.5 20.5 25.5 q11.5 12 23.5 20 q1 1 2 -1.5 q1 -2.5 0 -4.5 q-34 -37 -39 -57 l-1 -2 l0 -2 q-2 -22 19 -32 q7 -2 10 -7.5 q3 -5.5 1 -10.5 q-1 -5 -8 -8.5 q-7 -3.5 -15 -3.5 q-14 2 -22.5 7.5 q-8.5 5.5 -9.5 19.5 Z" /><glyph glyph-name="" unicode="&#x201d;" d="M275 575 q0 -14 -4.5 -28.5 q-4.5 -14.5 -12.5 -28 q-8 -13.5 -18.5 -25.5 q-10.5 -12 -22.5 -20 q-1 -1 -2 1.5 q-1 2.5 0 4.5 q17 18 24.5 33 q7.5 15 9.5 24 l0 2 q0 1 1 2 q2 22 -19 32 q-7 2 -10 7.5 q-3 5.5 -1 10.5 q1 5 8 8.5 q7 3.5 15 3.5 q14 -2 22.5 -7.5 q8.5 -5.5 9.5 -19.5 ZM362 575 q0 -14 -5 -28.5 q-5 -14.5 -14 -28 q-9 -13.5 -20.5 -25.5 q-11.5 -12 -23.5 -20 q-1 -1 -2 1.5 q-1 2.5 0 4.5 q34 37 39 57 l0 2 q0 1 1 2 q2 22 -19 32 q-7 2 -10 7.5 q-3 5.5 -1 10.5 q1 5 8 8.5 q7 3.5 15 3.5 q14 -2 22.5 -7.5 q8.5 -5.5 9.5 -19.5 Z" /><glyph glyph-name="" unicode="&#x2026;" d="M264 309 q0 11 7 18.5 q7 7.5 17 7.5 q10 0 17.5 -7.5 q7.5 -7.5 7.5 -18.5 q0 -11 -7.5 -18 q-7.5 -7 -17.5 -7 q-10 0 -17 7 q-7 7 -7 18 ZM479 309 q0 11 7 18.5 q7 7.5 18 7.5 q11 0 18 -7.5 q7 -7.5 7 -18.5 q0 -11 -7 -18 q-7 -7 -18 -7 q-11 0 -18 7 q-7 7 -7 18 ZM684 309 q0 11 7 18.5 q7 7.5 18 7.5 q11 0 18 -7.5 q7 -7.5 7 -18.5 q0 -11 -7 -18 q-7 -7 -18 -7 q-11 0 -18 7 q-7 7 -7 18 Z" /><glyph glyph-name="" unicode="&#x3001;" d="M101 99 q-5 6 0.5 7 q5.5 1 12.5 -1 q23 -10 47.5 -27.5 q24.5 -17.5 35.5 -27.5 q8 -8 9 -14 q1 -6 -3 -16 q-2 -5 -4 -9 q-2 -4 -6 -8 q-4 -4 -10 -3 q-6 1 -10 8 q-11 22 -32.5 46.5 q-21.5 24.5 -39.5 44.5 Z" /><glyph glyph-name="" unicode="&#x3002;" d="M201 49 q0 14 -11.5 22 q-11.5 8 -27.5 8 q-16 0 -27 -8 q-11 -8 -11 -22 q0 -13 11 -22 q11 -9 27 -9 q16 0 27.5 9 q11.5 9 11.5 22 ZM162 -8 q-26 0 -44 15 q-18 15 -18 42 q0 25 18 41 q18 16 44 16 q26 0 44.5 -16.5 q18.5 -16.5 18.5 -41.5 q0 -26 -18.5 -41 q-18.5 -15 -44.5 -15 Z" /><glyph glyph-name="" unicode="&#x3008;" d="M842 564 q5 7 10.5 12 q5.5 5 10.5 3 q8 -2 9 -9 q1 -7 -2 -14 l-164 -247 q-8 -13 -10 -23 q-2 -10 11 -30 l163 -244 q10 -20 -3 -27 q-8 -5 -22 14 l-166 251 q-9 12 -13.5 19 q-4.5 7 -5 12.5 q-0.5 5.5 1.5 10 q2 4.5 7 11.5 l173 261 Z" /><glyph glyph-name="" unicode="&#x3009;" d="M329 303 q5 -7 7.5 -11.5 q2.5 -4.5 1.5 -10 q-1 -5.5 -5.5 -12.5 q-4.5 -7 -13.5 -19 l-165 -251 q-5 -8 -12 -12.5 q-7 -4.5 -13 0.5 q-13 7 1 25 l162 244 q13 20 11 30 q-2 10 -10 23 l-164 247 q-3 7 -0.5 14.5 q2.5 7.5 11.5 9.5 q2 1 6.5 -4 q4.5 -5 9.5 -12 l173 -261 Z" /><glyph glyph-name="" unicode="&#x300a;" d="M743 564 q5 6 10.5 11.5 q5.5 5.5 9.5 3.5 q8 -2 8 -9 q0 -7 -5 -16 l1 2 l-169 -247 q-9 -14 -10.5 -23.5 q-1.5 -9.5 12.5 -29.5 l163 -244 q15 -21 7 -25 q-13 -7 -24 12 l-166 251 q-9 12 -13.5 19 q-4.5 7 -5 12.5 q-0.5 5.5 1.5 10 q2 4.5 7 11.5 l173 261 ZM848 564 q5 7 10 12 q5 5 10 3 q8 -2 8 -8.5 q0 -6.5 -5 -14.5 l-168 -247 q-9 -14 -11 -23.5 q-2 -9.5 12 -29.5 l164 -244 q15 -21 10 -24 q-9 -5 -15 -1.5 q-6 3.5 -12 12.5 l-166 251 q-9 12 -13.5 19 q-4.5 7 -5.5 12.5 q-1 5.5 1.5 10 q2.5 4.5 7.5 11.5 l173 261 Z" /><glyph glyph-name="" unicode="&#x300b;" d="M431 303 q4 -7 6.5 -11.5 q2.5 -4.5 1.5 -10 q-1 -5.5 -5.5 -12.5 q-4.5 -7 -12.5 -19 l-166 -251 q-5 -9 -12 -13 q-7 -4 -14 1 q-8 3 8 25 l163 244 q7 10 10 17 q3 7 3 13 q0 6 -3 11 q-3 5 -7 12 l-170 247 l1 -2 q-5 10 -4.5 17 q0.5 7 8.5 9 q4 2 9.5 -3.5 q5.5 -5.5 10.5 -12.5 l173 -261 ZM326 303 q5 -7 7 -11.5 q2 -4.5 1.5 -10 q-0.5 -5.5 -5 -12.5 q-4.5 -7 -13.5 -19 l-166 -251 q-7 -9 -13 -12.5 q-6 -3.5 -14 1.5 q-5 2 9 24 l164 244 q14 20 12.5 29.5 q-1.5 9.5 -11.5 23.5 l-168 247 q-5 8 -4.5 14.5 q0.5 6.5 7.5 8.5 q4 2 10 -3 q6 -5 11 -12 l173 -261 Z" /><glyph glyph-name="" unicode="&#x300c;" d="M713 548 q0 28 11 38 q11 10 30 10 l140 0 q6 0 6 -15 q0 -6 -2.5 -10.5 q-2.5 -4.5 -5.5 -4.5 l-114 0 q-21 0 -28 -7 q-7 -7 -7 -24 l0 -560 q-3 -4 -6 -7 q-8 -6 -13 -6 q-8 0 -10 6 q-1 3 -1 7 l0 573 Z" /><glyph glyph-name="" unicode="&#x300d;" d="M286 10 q0 -28 -11 -38 q-11 -10 -30 -10 l-140 0 q-6 0 -6 15 q0 6 2.5 10.5 q2.5 4.5 5.5 4.5 l114 0 q21 0 28 7 q7 7 7 24 l0 560 q2 3 6 6 q2 2 5.5 4.5 q3.5 2.5 7.5 2.5 q8 0 10 -7 q1 -3 1 -6 l0 -573 Z" /><glyph glyph-name="" unicode="&#x300e;" d="M682 548 q0 33 10.5 41.5 q10.5 8.5 35.5 9.5 l124 0 q32 0 42 -9.5 q10 -9.5 10 -35.5 q0 -29 -9 -42.5 q-9 -13.5 -43 -13.5 l-44 0 q-12 0 -18.5 -6 q-6.5 -6 -6.5 -29 l0 -478 q0 -18 -17 -24.5 q-17 -6.5 -38 -6.5 q-25 0 -35.5 6 q-10.5 6 -10.5 25 l0 563 ZM753 499 q0 12 6 20.5 q6 8.5 21 8.5 l72 0 q10 0 15.5 2.5 q5.5 2.5 5.5 20.5 q0 11 -3.5 15 q-3.5 4 -17.5 4 l-115 0 q-16 0 -20.5 -13.5 q-4.5 -13.5 -4.5 -28.5 l0 -505 q0 -25 3 -32 q3 -7 13 -7 q15 0 20 5.5 q5 5.5 5 31.5 l0 478 Z" /><glyph glyph-name="" unicode="&#x300f;" d="M322 5 q0 -33 -10.5 -41.5 q-10.5 -8.5 -35.5 -9.5 l-124 0 q-32 0 -42 9.5 q-10 9.5 -10 35.5 q0 29 9 42.5 q9 13.5 43 13.5 l44 0 q12 0 18.5 6 q6.5 6 6.5 29 l0 478 q0 18 17 24.5 q17 6.5 38 6.5 q25 0 35.5 -6 q10.5 -6 10.5 -25 l0 -563 ZM251 54 q0 -12 -6 -20.5 q-6 -8.5 -21 -8.5 l-72 0 q-10 0 -15.5 -2.5 q-5.5 -2.5 -5.5 -20.5 q0 -11 3.5 -15 q3.5 -4 17.5 -4 l115 0 q16 0 20.5 13.5 q4.5 13.5 4.5 28.5 l0 505 q0 25 -3 32 q-3 7 -13 7 q-15 0 -20 -5.5 q-5 -5.5 -5 -31.5 l0 -478 Z" /><glyph glyph-name="" unicode="&#x3010;" d="M699 599 l181 0 q10 0 10.5 -5 q0.5 -5 -10.5 -20 q-23 -33 -41.5 -68 q-18.5 -35 -29.5 -78 q-6 -31 -10 -70 q-4 -39 -4 -80 q0 -54 8 -97 q2 -18 8.5 -43 q6.5 -25 15.5 -51 q9 -26 21 -50 q12 -24 26 -40 q11 -13 14 -22 q3 -9 -11 -9 l-179 0 l1 633 Z" /><glyph glyph-name="" unicode="&#x3011;" d="M352 -34 l-179 0 q-14 0 -11 9 q3 9 14 22 q14 16 26 40 q12 24 21 50 q9 26 15.5 51 q6.5 25 8.5 43 q8 43 8 97 q0 41 -4 80 q-4 39 -10 70 q-11 43 -29.5 78 q-18.5 35 -41.5 68 q-11 15 -10.5 20 q0.5 5 10.5 5 l181 0 l1 -633 Z" /><glyph glyph-name="" unicode="&#x3014;" d="M753 47 q0 -7 0.5 -13 q0.5 -6 3.5 -11 q3 -5 10 -10 q7 -5 20 -9 l77 -29 q10 -3 17 -7.5 q7 -4.5 2 -14.5 q-5 -10 -20 -5 l-108 38 l1 0 q-21 8 -25 18.5 q-4 10.5 -4 27.5 l0 495 q0 17 4 25 q4 8 24 16 l108 38 q7 2 12.5 2 q5.5 0 7.5 -7 q4 -8 -2.5 -14 q-6.5 -6 -16.5 -8 l-77 -27 q-13 -4 -20 -9 q-7 -5 -10 -10 q-3 -5 -3.5 -11 q-0.5 -6 -0.5 -13 l0 -462 Z" /><glyph glyph-name="" unicode="&#x3015;" d="M244 509 q0 13 -4.5 24 q-4.5 11 -29.5 19 l-77 27 q-10 2 -16.5 8 q-6.5 6 -2.5 14 q2 7 7.5 7 q5.5 0 12.5 -2 l108 -38 q20 -8 24 -16 q4 -8 4 -25 l0 -495 q0 -17 -4 -27.5 q-4 -10.5 -25 -18.5 l1 0 l-108 -38 q-15 -5 -20 5 q-5 10 2 14.5 q7 4.5 17 7.5 l77 29 q25 8 29.5 18.5 q4.5 10.5 4.5 24.5 l0 462 Z" /><glyph glyph-name="" unicode="&#x4e00;" d="M739 351 q14 -14 2 -29 q-10 -5 -20 -9 q-26 18 -60 18 q-102 -16 -221 -33 l0 -4 q-34 -8 -42 -8 l-4 -5 q-8 0 -30 -9 q-42 -4 -78 -11 q-12 7 -23 14 l-8 9 l-10 2 l0 22 q6 0 13 12.5 q7 12.5 17 0.5 q0 -13 5 -21 q10 -6 20 -10 q100 20 211 45 q79 10 116 16 q63 0 104 4 l8 -4 Z" /><glyph glyph-name="" unicode="&#x4e0d;" d="M580 586 q3 0 12 -6 q8 -41 -20 -71 q-63 -92 -141 -168 q2 -4 4 -8 q39 27 63 -11 q21 -65 22 -134 q-9 -69 -16 -139 q-16 -20 -32 -2 q0 18 0 39 q0 21 10 39 q0 67 0 134 q-8 21 -17 41 q-25 19 -48 -2 q-23 -18 -70 -51 l-21 -21 l-9 -3 l-42 -42 l-18 -11 l-22 -23 q-5 -2 -20 -15 l-27 -28 q-9 8 -13.5 0 q-4.5 -8 -11.5 -2 q-9 39 31 57 l76 53 l56 58 l34 28 q87 82 163 176 q35 38 40 85 q-114 -40 -205 -75 q-50 -24 -90 -10 q-3 16 2 20 q40 15 88 13 q93 32 167 60 l4 5 l51 14 ZM650 280 q47 -8 101 -17 q17 -6 64 -37 q4 -14 17 -24 q13 -10 13 -26 l-18 -4 l-3 -9 l-5 0 l-10 11 q-29 14 -64 34 l-2 7 l21 4 l2 6 q-25 20 -56 14 q-31 -6 -56 12 q-15 12 -4 29 Z" /><glyph glyph-name="" unicode="&#x4e2a;" d="M393 582 l5 -2 l0 -15 l-16 -6 l8 -14 q32 -20 84 -57 q33 -39 46 -53 q16 -15 32 -29 q22 -12 102 -63 q116 -41 226 -100 l0 -8 q-39 15 -100 40 q-96 31 -153 51 l-6 7 l-11 0 l-2 6 q-26 12 -47 21 l-18 22 l-24 18 q-27 27 -37 40 q-20 0 -29.5 25 q-9.5 25 -30.5 21 q18 -118 5 -235 q6 -75 10 -112 q10 -47 16 -74 q-6 -20 -13 -34 l-5 12 l-8 -8 l-9 -6 q-10 32 -16 71 q6 27 9 63 q-5 16 -7 33 q2 128 4 206 q-4 54 -14 102 l-12 5 l-9 -9 l-9 0 q4 14 -6 27 l-13 -8 q-26 -41 -47 -76 q-77 -102 -112 -146 q-35 -60 -54 -91 q-13 31 15 64 q112 157 217 306 l26 10 l3 -4 ZM321 488 l5 0 l-4 2 l-1 -2 Z" /><glyph glyph-name="" unicode="&#x4e2d;" d="M541 672 q0 -20 -2 -165 q63 12 127 38 q67 16 87 16 q31 -20 -2.5 -34.5 q-33.5 -14.5 -33.5 -30.5 l-7 -2 q-49 -54 -49 -59 q15 -2 31 -11 q10 -16 -6 -26 q-25 -8 -49 -2 q-74 -36 -98 -55 q-20 -178 24 -341 q-4 -16 -9 -53 l-7 7 q-14 -13 -24 -14 q-11 154 -9 313 q-5 55 -10 68 q-14 -6 -26 -8 l-9 -9 q-20 -14 -36 -6 l-4 -4 q-18 14 -9 37 q13 24 40.5 24 q27.5 0 46.5 25 l0 84 q-76 -24 -123 -35 l-4 4 q-2 -6 -31 -37 q-10 -12 -20 -2 q-10 12 4 22.5 q14 10.5 18 23.5 q94 29 158 52 q2 24 5 51 q-2 51 0 111 q2 7 6 18 l11 4 l10 -4 ZM250 533 q9 -39 7 -84 q13 -61 51 -106 q35 -21 61 -30 l0 -11 q-5 -2 -9 -4 q-17 4 -56 17 q-49 49 -67 118 q-22 53 10 100 l3 0 ZM692 533 l-2 -4 q-49 -17 -85 -25 l-3 -4 l-61 -22 q-4 -13 -4 -85 q24 -13 46 11.5 q22 24.5 46 35.5 l45 50 l36 35 l0 6 l-15 0 l-3 2 ZM659 458 l0 -7 l2 5 l-2 2 ZM607 415 l0 -7 l1 5 l-1 2 ZM337 404 l0 -6 l2 4 l-2 2 ZM268 400 l0 -6 l2 4 l-2 2 Z" /><glyph glyph-name="" unicode="&#x4e86;" d="M556 619 q14 0 51 -7 q24 -20 20 -49.5 q-4 -29.5 -17 -50.5 l-3 -1 q0 -7 -31 -46 l-29 -25 q16 -42 39 -80 l-4 -2 q1 -5 6 -7 q4 -43 8 -108 q-14 -123 -22 -212 l4 -2 l-4 -25 q-13 -2 -22 0 l-3 -8 q-10 3 -18 4 q-11 8 -19 16 q-28 11 -63 27 l-20 22 q-21 7 -41 17 l-2 3 l-8 2 l0 7 q26 -4 142 -38 q7 2 13 5 q6 37 12 55 q4 72 7 110 l4 2 q2 22 3 35 q-5 41 -12 97 q-8 11 -27 40 q-28 -10 -44 13 q0 9 8 20 q20 0 39.5 16 q19.5 16 37.5 31 q17 22 35 47 q6 25 3 51 q-19 16 -43 14 l-4 4 q-62 -16 -164 -47 q-10 0 -19 0 l-1 7 l16 7 l2 7 q34 26 80 30.5 q46 4.5 90 18.5 Z" /><glyph glyph-name="" unicode="&#x4f53;" d="M600 695 q15 -16 31 -43 q12 -37 71 -148 q0 -10 0 -18 l-5 0 l-9 -10 q-18 -7 -34 -9 l-2 -3 q-45 -15 -62 -17 l-4 -4 l-4 4 l-2 -4 q-39 -12 -51 -21 q-33 -75 -41 -157 q-8 -77 10 -143 l13 5 l16 18 l69 36 q19 11 19 34 q2 71 10 134 q8 4 16 9 q27 -19 61 -52 q19 -20 8 -42.5 q-11 -22.5 -20 -38.5 l-40 -37 q-5 -10 -9 -18 q4 -54 13 -87 q-2 -59 0 -134 q-4 -6 -9 -11 q-20 -18 -35 2 q-8 18 9 36 q2 96 4 124 q-4 32 -16 61 l-7 -6 q-30 -16 -58 -39.5 q-28 -23.5 -60 -23.5 q-24 71 -17 153 q17 116 25 163 q-37 -24 -77 -28 l-2 -4 l-38 0 q-15 12 -4 30 q71 7 138 43 q30 78 83 239 l10 7 ZM612 639 l-5 0 q-33 -78 -64 -163 q0 -9 0 -16 q24 5 125 36 q2 8 6 18 q-6 6 -13 13 q-16 51 -24 78 l-6 3 l-19 29 l0 2 ZM239 556 l4 -13 l7 0 q-33 -103 -56 -175 q12 8 26.5 24 q14.5 16 32.5 -8 q27 -47 17 -98 q-29 -69 -7.5 -143 q21.5 -74 -12.5 -137 q-17 -10 -27 -12 q-6 6 -13 12 q11 41 25 81 q-2 17 -7 132 q9 46 15 78 q2 32 -17 61 q-32 -34 -63 -74 q-18 -25 -31 -3 q3 16 5 32 q59 145 98 243 l4 0 ZM817 384 q12 -16 0 -33 q30 -47 45 -79 q4 -35 0 -53 l-9 -7 q-26 18 -15 51 q-32 50 -52 86 q-10 20 9 37 l22 -2 ZM496 347 l0 -6 l2 4 l-2 2 ZM655 306 q-14 -38 -8 -80 l21 17 q18 18 13 45 l-24 16 l-2 2 ZM512 112 l0 -5 l2 3 l-2 2 Z" /><glyph glyph-name="" unicode="&#x505a;" d="M745 715 q10 -14 3 -29 q-67 -137 -72 -145 q-15 -37 -24 -65 q0 -16 0 -33 q14 -10 27 1.5 q13 11.5 29 11.5 l2 4 q35 12 60 -11 q14 -25 30 -56 q0 -33 4 -54 q-6 -29 -9 -58 q-40 -82 -93 -156 q4 -6 8 -11 q54 -18 94 -56 q23 -31 60 -74 q8 -2 55 -44 l10 -20 l-20 -11 l-5 -9 q-30 9 -53 41 q-30 10 -67 26 l0 7 l27 8 q10 4 2.5 10.5 q-7.5 6.5 -0.5 13.5 l-7 5 q-18 20 -32 34 q-13 4 -35 24 q-26 11 -60 27 q-22 -14 -43 -33.5 q-21 -19.5 -48 -13.5 q-25 27 -32 45 q-9 71 -11 102 q20 10 33 10 l2 4 q28 -6 49 -27 q6 -7 43 -44 l7 -2 q22 28 60 89 l4 2 q23 44 36.5 98 q13.5 54 -19.5 101 q-21 13 -45 10 l-2 -4 q-34 -11 -72 -16 l-12 12 q-12 -14 -29 -45 q-24 -53 -35 -78 q-45 -83 -61 -110 q-4 -13 -8 -29 q-38 -65 -63 -116 q-16 -11 -22 -12 q-17 41 19.5 83.5 q36.5 42.5 0.5 85.5 q-9 0 -20 -9 q-35 -79 -51 -117 q-11 -15 -25 -8 q-2 51 4 107 q10 72 22 177 q-32 -11 -63 -21 l-10 -11 l-16 -2 q-25 17 -9 40 l7 0 l4 4 q23 -7 41 5.5 q18 12.5 43 19.5 q15 63 36 136 q8 10 17 20 l16 0 q8 -22 21.5 -40.5 q13.5 -18.5 13.5 -41.5 q5 -5 12 -11 l2 4 l24 4 q14 -19 -2 -35 l-16 0 l-6 -9 l-18 -5 l-9 -9 q-25 -12 -51 -20 q-25 -88 -32 -178 q0 -18 3 -30 q25 34 42 57 q18 8 36 -7 q17 -29 25 -47 l12 11 q75 123 135 255 q40 139 116 268 l10 0 ZM255 592 q20 -14 2 -34 q-14 -29 -32 -84 q-31 -59 -58 -114 q12 -17 16 -29 q0 -27 13 -80 q-2 -81 -6 -137 q0 -53 4 -61 l5 5 l7 0 q13 -22 -0.5 -39 q-13.5 -17 -13.5 -33 q-16 -14 -27 -16 q0 36 -4 113 q6 37 13 145 q-2 46 -20 89 q-11 2 -18 -5.5 q-7 -7.5 -14 -7.5 l-22 -29 q-13 -12 -22 -3 q-6 41 29 67 l20 10 q24 37 49 75 q50 121 71 168 l8 0 ZM429 509 l-9 0 q-7 -13 -16 -23 q-11 -41 -8 -78 q22 10 51 27 q2 5 4 8 q-8 19 -20 64 l-2 2 ZM592 167 q-4 3 -20 -8 q2 -22 4 -43.5 q2 -21.5 18 -35.5 q16 -8 29.5 4 q13.5 12 26.5 23 l0 12 l-15 8 q-8 10 -12 22 l-8 0 l-5 8 l-18 10 Z" /><glyph glyph-name="" unicode="&#x51b5;" d="M353 623 q31 -76 64 -151 q57 -88 92 -129 l14 12 q59 67 106 149 q2 15 -2 23 q-17 4 -33 -7 q-33 -18 -63 -34 q-33 -41 -45 -57 l-8 0 q-13 22 6 45 q12 6 106 65 q27 17 53 8 q14 -14 11 -35 q-25 -54 -64 -99 l-8 -5 q-12 -20 -4 -39 q-11 -14 -26 -45 q-15 -16 -27 -2 l-23 -22 l-16 -8 q-19 6 -6.5 16.5 q12.5 10.5 12.5 22.5 q-59 59 -96 134 q-27 58 -41 94 q-10 48 -10 66 l8 -2 ZM131 406 l6 -10 q14 -2 39 -14 q-9 -24 24 -43.5 q33 -19.5 17 -40.5 l-9 6 l-34 39 l-37 26 q-17 15 -8 37 l2 0 ZM917 373 q-10 -132 -17 -219 q11 -54 13 -109 q12 -25 12 -37 l-12 6 l-6 -6 q6 -8 -5 -14 l-8 -2 l-6 7 q-102 -9 -198 7 q-35 -10 -61 -7 l-4 -5 q-35 -4 -62 14 q-24 21 -20 53 q-2 125 -4 162 l-16 -6 q-4 -13 -35 -50 q-16 -30 -39 -87 q-20 -31 -53 -35 q0 80 55 155 q21 45 61 78 l7 0 q-17 -15 -5 -27 q9 2 26.5 14.5 q17.5 12.5 29.5 -6.5 q6 -55 -0.5 -111 q-6.5 -56 13.5 -108 q13 -7 40 -13 q43 6 81 8 q19 -4 39 -6 q90 0 137 4 q-6 86 8 173 q3 84 29 167 ZM408 349 q-15 -36 -47 -63 l-3 -2 l-3 -9 q-38 -34 -85 -67 l-11 -9 q-26 -18 -102 -68 l-32 -33 q-18 -6 -33 -11 q-16 20 6 32 l9 3 l15 19 q86 40 168 102 q34 29 70 57 l48 49 ZM496 239 l-6 -4 l-2 -9 l8 0 l2 11 l-2 2 ZM469 190 q-18 -35 -24 -58 l6 0 q0 13 13.5 25.5 q13.5 12.5 9.5 30.5 l-5 2 ZM900 122 q-2 -8 2 -12 l2 10 l-4 2 Z" /><glyph glyph-name="" unicode="&#x51fa;" d="M469 631 q11 -2 25 -14 q0 -12 8 -52 l7 -2 q-5 -4 -7 -5 q5 -6 5 -25 l-9 -6 q-4 -47 0 -55 q31 6 66.5 31.5 q35.5 25.5 72.5 -1.5 q26 -42 6 -89 q-57 -111 -145 -194 q-12 -25 -4 -47 q31 6 71 22 l-7 43 l5 0 l15 -35 q67 15 139 33 q26 2 47 -16 q45 -29 51 -80 q0 -31 -20 -49 l-13 -8 l-6 -10 q-25 -29 -69 -58.5 q-44 -29.5 -74 17.5 q-26 41 -45 77 q-12 51 -21 64 q-63 -25 -127 -44.5 q-64 -19.5 -121 -47.5 q-45 -19 -91 -19 q-13 15 2 29 q58 22 119 45 q45 28 53 28 l6 7 l54 42 q3 9 7 16 q-5 62 -9 117 q4 82 0 86 q-33 -14 -123 -60 l-8 -11 q-12 -9 -29 -13 l-6 -6 q-19 -12 -39 -26 q-25 -18 -47 -7 q-25 33 -14 76 q21 49 59 92 q17 14 41 12 q3 -10 -2 -14 l-12 -5 q-29 -29 -56.5 -66 q-27.5 -37 1.5 -77 q43 19 90 42 q36 20 147 81 q5 43 5 86 q0 43 -5 88 q3 4 7 8 ZM612 490 q-24 6 -44.5 -6 q-20.5 -12 -40.5 -12 q-8 -7 -35 -27 q0 -72 -2 -104 q4 -44 10 -91 l7 3 q75 78 122 180 q8 29 -8 53 l-9 4 ZM706 212 q-27 0 -50 -13 q-23 -13 -48 -9 l-3 -4 l-17 -8 q11 -70 64 -115 q20 -24 50 -18 q29 27 59 53 q48 37 7 85 q-18 5 -30 17 q-12 12 -30 10 l-2 2 ZM456 178 l-39 -29 q3 -2 39 8 l2 19 l-2 2 Z" /><glyph glyph-name="" unicode="&#x52a0;" d="M429 539 q4 0 14 -8 q13 -35 -11 -60.5 q-24 -25.5 -26 -53.5 q12 -64 5 -125 q-38 -129 -62 -209 q-6 0 -20 -7 q-5 4 -7 9 q7 35 17 72 l8 6 q13 27 39 125 q10 43 2 85 q-15 -13 -88 -122 l-6 -1 q-13 -27 -35 -47 q-22 -20 -29 -44 l-36 -32 l-24 -29 q-15 -20 -38 -15 q-12 19 5.5 27.5 q17.5 8.5 23.5 24.5 l27 22 q75 78 136 167 q45 52 44 103 q-31 -3 -46 -5 l-1 -4 l-33 -20 l-13 -18 q-14 -12 -24 -2 q-8 16 5.5 28 q13.5 12 24.5 25 q32 9 74 22 q27 -4 39 -6 q17 27 17 60 q6 7 18 32 ZM561 388 q4 -10 11 -19 q10 -72 16 -108 q14 -51 45 -91 q2 9 17 30 q42 25 91 43 q45 43 90 86 l0 8 q-78 -11 -143 -51 l-20 -25 l-9 4 q0 37 4 41 q72 25 146 52 q26 8 53 -3 q16 -26 -13 -40 l-43 -40 l-26 -28 l10 -4 q7 -13 -4 -17 l-16 0 l-2 -3 q-42 -13 -76 -33 q-26 -7 -19.5 -24 q6.5 -17 -2.5 -29 q-23 -18 -41 2 q-47 40 -59 104 q-18 92 -25 143 l9 7 l7 -5 Z" /><glyph glyph-name="" unicode="&#x52a8;" d="M290 623 q2 0 25 -15 q24 -36 65 -89 q10 -21 4 -37 l-8 -4 q-15 29 -33 53 l-10 8 l-41 47 l-20 2 l0 29 l18 6 ZM725 617 q8 -12 12 -25 q-12 -20 -45 -72 q0 -8 0 -13 q61 -13 106 -60 q58 -87 -15 -166 q-73 -79 -107 -149 l-10 5 l-7 -6 l-12 0 q-2 28 -5 61 q-3 33 26 58 q11 -40 18 -58 q64 69 104 155 q21 46 -10 84 q-22 12 -47 32.5 q-25 20.5 -52 12.5 l-38 -70 l-4 -2 q-6 -14 -153 -218 q-93 -106 -153 -180 q-12 2 -19.5 -6 q-7.5 -8 -13.5 8 q6 16 3 36.5 q-3 20.5 21 33.5 l23 14 l6 6 l13 0 l3 -4 q71 65 127 145 q104 149 125 179 q6 17 12 35 q-18 -2 -34 -17.5 q-16 -15.5 -34 -6.5 l0 27 q25 11 85 38 q13 31 36 84 q15 18 31 39 l8 0 ZM364 388 q12 -17 0 -30 q-49 -56 -78 -113 q57 10 134 25 q20 0 40 0 q20 -15 4 -29 q-15 -13 -29.5 -26 q-14.5 -13 -32.5 0 l20 18 l7 8 q-16 0 -33 0 q-112 -26 -173 -39 q-4 2 -8 4 l0 15 l44 42 q72 95 74 103 q-12 10 -27 7 q-80 -49 -163 -52 l4 24 q12 8 25 19 q7 -15 24 -11 q76 29 125 51 l43 -16 Z" /><glyph glyph-name="" unicode="&#x5305;" d="M394 641 q6 -6 12 -12 q-6 -19 -13 -73 l-7 -2 q-20 -27 -31 -58 q0 -8 0 -14 q47 10 161 41 q38 0 49 -4 q52 -54 70 -125 q0 -43 0 -84 q-39 -161 -52 -208 q-16 -19 -31 -6 q-32 20 -21 55 q10 3 15.5 -6.5 q5.5 -9.5 16.5 -9.5 q7 19 47 182 q0 34 0 69 q-11 59 -54 106 q-9 6 -29 8 q-82 -22 -141 -38 l-2 -4 q-37 -18 -80 -36 q-10 11 -12 23 q63 88 92 196 l10 0 ZM371 321 q42 -8 64 -19 q12 -18 10 -39 q-21 -28 -25 -40 l-3 -2 l-24 -33 q-27 -18 -53.5 -39.5 q-26.5 -21.5 -59.5 -9.5 q-12 -31 -35 -52 q-8 -29 -12 -54 q55 -37 121 -29 q66 8 130 2 q179 18 277 29 q5 59 19 195 l6 0 q4 -63 12 -195 q4 -13 11 -23 q-5 -6 -9 -12 q-24 -10 -47 6 q-56 0 -110.5 -13 q-54.5 -13 -109.5 -13 q-106 0 -175 -4 q-66 0 -128 16 q-15 14 -31 28 q-5 9 -7 19 q10 21 53 122 q12 67 23 129 q13 7 24 -10 q14 -50 -8 -94 q4 -12 8 -23 q34 0 63 27 l39 47 l-16 13 q0 13 -16.5 36.5 q-16.5 23.5 7.5 35.5 l2 -1 ZM398 281 q-2 -7 4 -28 l9 6 q4 13 0 21 l-13 1 Z" /><glyph glyph-name="" unicode="&#x5316;" d="M449 586 q11 -10 29 -47 q2 -28 6 -49 q-37 -96 -20 -198 l8 0 q20 21 40 43 q-3 16 0 26 q8 -3 17 -8 q38 33 59 47 l12 17 l8 3 q21 20 7 47 q-19 13 -28 -11.5 q-9 -24.5 -28 -12.5 l-1 13 l22 16 l14 24 q21 15 39 -8 q10 -24 12 -48 q-22 -47 -33 -62 l-92 -74 q-26 -26 -53 -53 q-3 -63 5 -124 q6 -2 12 -5 q47 13 94 23 q85 6 175 27 q68 0 111 -2 q20 -15 12 -33 q-47 -15 -123 -37 q-5 2 -10 4 l0 8 l54 33 q-37 0 -72 0 q-80 -16 -227 -45 q-33 -2 -45 2 q-2 8 -10 33 q4 51 -6 95 q-68 -52 -79 -56 l-11 -11 q-30 -18 -63 -34 q-10 -10 -21 -19 q2 -6 5 -12 q-5 -33 -15 -59 l-6 6 l-6 -12 q-4 -2 -16 6 q-10 43 -15 75 l13 8 l7 -10 l5 0 q0 43 -5 53 q11 76 11 154 q-4 14 -6 30 l-18 -12 l-25 -29 l-9 -6 q-29 -34 -38 -79 q-13 -6 -25 -6 q-6 20 -3.5 44.5 q2.5 24.5 22.5 42.5 l6 2 q31 49 47 107 q2 20 7 40 q-13 14 -7 37 q8 6 12 -4 q4 -10 15 -10 q9 -31 -5 -55.5 q-14 -24.5 -8 -51.5 q9 4 22 11.5 q13 7.5 25 -7.5 q6 -9 12 -20 q-4 -110 0 -218 q50 22 96 64 q39 31 79 64 q-3 47 -5 95 q10 82 21 169 q-11 25 -21 51 l10 8 l4 0 Z" /><glyph glyph-name="" unicode="&#x53d6;" d="M361 629 q5 0 23 -8 q0 -9 2 -16 q-45 -64 -62 -138 q15 -5 32 7 q17 12 32 -7 q16 -32 -8.5 -54.5 q-24.5 -22.5 -28.5 -46.5 q22 3 43 -8 q0 -11 2 -19 q-47 -61 -61 -78 l-37 -33 l-12 -16 l-18 -16 l-13 -15 l-16 -7 q-4 -9 -16 -20 q45 13 155 56 q15 9 30 18 q-12 40 7 78 q-4 88 -4 221 q2 4 6 9 l20 0 q3 -9 10 -16 q-4 -91 -7 -156 q0 -19 3 -38 q-3 -36 -8 -73 q2 -6 5 -12 l13 9 q0 11 7 28 l14 -4 q16 -23 0 -41 l-31 -16 q-3 -7 -8 -13 q5 -57 -8 -112 q6 -18 8 -32 q-6 -31 -11 -61 l-11 0 l-11 -13 l-8 4 q-1 10 -4 21 q6 96 14 179 q-2 2 -4 6 q-137 -57 -230 -98 l-7 -6 l-24 0 q-10 16 6 27 l83 71 q0 49 13.5 98 q13.5 49 26.5 100 q-13 16 -7 43 l27 16 q31 60 45 129 q-9 2 -33 12 q-32 0 -57 -12 q-10 2 -18 6 l0 17 l3 -5 l11 0 l14 14 q37 11 73 0 q17 11 35 21 ZM739 512 q6 0 22 -12 q0 -139 -55 -265 q25 -49 68 -84 l30 -29 q34 -40 65 -79 q0 -8 0 -14 l-13 -2 l-11 -15 q-41 28 -50 75 q-54 58 -105 115 q-27 -37 -65 -75 q-23 -19 -49 -19 l-2 -4 l-16 6 l-2 15 q20 -13 34.5 2.5 q14.5 15.5 32.5 26.5 q36 32 49 76 q-31 35 -62 72 q-20 11 -38 20 q-13 -3 -23 0 q-2 25 -26 39 q-9 21 10 33 l21 0 l9 -12 q25 2 52 26 q57 57 124 104 ZM737 482 q-40 2 -61 -43.5 q-21 -45.5 -55 -50.5 q-16 -20 -22 -33 q3 -6 9 -10 l9 -4 l67 -82 l8 -4 q47 106 45 227 ZM361 449 q-39 -18 -69 -45 q0 -14 -9 -29 q-9 -15 3 -26 l24 11 q9 20 36 38.5 q27 18.5 18 48.5 l-3 2 ZM358 339 q-50 -17 -84 -29 q-4 -20 -12.5 -42.5 q-8.5 -22.5 10.5 -39.5 l6 5 q16 17 35 35 q28 30 47 69 l-2 2 Z" /><glyph glyph-name="" unicode="&#x540c;" d="M692 661 q43 -14 88 0 q6 -6 15 -11 q2 -7 3 -13 q-10 -38 -18 -81 q4 -25 10 -58 l-4 -2 l4 -31 l-4 -1 q-2 -29 -4 -60 q4 -20 8 -40 q0 -56 0 -78 q5 -5 8 -29 l-3 -2 l3 -2 q0 -57 0 -112 q6 -39 13 -76 q2 -66 4 -95 q-9 -3 -29 -16 l-43 50 l-8 2 l-6 10 q-14 11 -94 71 l4 3 l-4 2 l0 8 q51 -26 67 -33 q24 -20 68 -49 q4 0 10 0 q-2 54 0 96 q-4 8 -8 17 q0 61 0 124 q-2 13 -8 25 q-4 91 -9 142 q15 70 0 137 q5 19 9 37 q-4 19 -11 27 q-36 -6 -69 6 q-37 0 -45 -4 l-4 4 l-4 -4 l-12 -2 l-4 4 l-5 -4 q-73 -4 -114 -8 q-24 -10 -49 -19 q-32 -2 -51 -8 q-47 -2 -70 0 l-13 -14 l-7 0 q-4 8 0 20 l9 5 l4 3 q10 5 20 10 q55 -4 112 13 q61 14 101 25 l2 -5 q54 7 136 18 l2 -2 ZM625 637 l0 -6 l2 4 l-2 2 ZM480 541 q18 -8 57 -21 q22 0 46 0 q13 7 42 13 q8 -8 14 -31 q-4 -8 -20 -28 l-7 2 l-7 8 q-53 0 -72 -2 q-14 2 -29 6 l-2 4 q-10 4 -18 8 q-24 0 -41 -2 l-3 -4 q-20 -10 -44 -29 q-27 -12 -49 -3 q-8 16 4 34 q43 15 129 45 ZM192 519 l16 -5 q0 -5 7 -14 q-3 -44 -3 -114 q9 -33 16 -65 q-2 -31 2 -113 q9 -18 13 -27 q-6 -38 -10 -79 q-7 5 -16 0 l-5 -10 l-8 0 q-4 10 -5 22 q3 23 5 51 q-5 96 -12 190 q-2 56 2 80 q-2 23 -8 34 q0 17 2 45 l4 5 ZM417 398 q20 -5 15 -22.5 q-5 -17.5 8 -26.5 l18 0 l2 4 q42 13 77 25 q6 -7 12 -12 q9 -15 0.5 -29.5 q-8.5 -14.5 4.5 -21.5 q9 -7 23.5 3.5 q14.5 10.5 27.5 0.5 q0 -9 -5 -17 q-35 -12 -64 -30.5 q-29 -18.5 -56 -36.5 l-2 -7 l-11 -7 l-20 -21 l-23 0 q-7 19 7 39 q-11 24 -12 53.5 q-1 29.5 -13 56.5 q-8 27 9 49 l2 0 ZM523 341 q-23 6 -37 -8 q-14 -14 -28 -18 q-18 -27 -2 -52 q16 9 58 37 q19 19 9 41 ZM221 110 l0 -6 l2 4 l-2 2 ZM699 47 l0 -7 l2 5 l-2 2 Z" /><glyph glyph-name="" unicode="&#x5927;" d="M393 631 q7 0 20 -4 q30 -102 43 -139 q6 -39 -11 -68 q-104 -54 -147 -77 q41 -33 69.5 -75.5 q28.5 -42.5 65.5 -77.5 l63 -61 q4 -9 53 -66 q14 -10 25 -18 q25 -5 105 -14 q76 -19 156 -37 l3 -6 q-19 -2 -36 -2 q-67 10 -101 16 q-96 6 -156 14 l-8 17 l-10 7 q-39 56 -45 64 q-86 77 -156 171 q-11 0 -21.5 17.5 q-10.5 17.5 -18.5 -2.5 q-2 -6 2 -12 q-4 -10 -8 -19 l-10 0 q0 15 -9 39 l-6 0 q-5 -18 -16 -35 q-2 -20 -4 -30 l-5 -3 q-7 -49 -18 -118 l7 0 q7 17 38 69 q2 -3 6 -5 q-2 -21 -4 -33 l-4 -2 q0 -22 -14.5 -39 q-14.5 -17 -25.5 -28 q-16 -11 -32 -2 q0 24 13 111 q23 78 30 117 q-18 4 -33 -17.5 q-15 -21.5 -32 -2.5 l4 17 q13 20 35.5 22 q22.5 2 40.5 20 q29 65 112 257 q15 14 29 31 l8 0 l3 4 ZM408 602 q-22 5 -35 -14 q-47 -98 -67 -151 l-4 -2 q-8 -29 -22 -66 q1 -3 6 -5 q24 9 138 71 q25 27 16 69 q-9 52 -32 98 ZM274 329 q-19 -8 -6 -16 l6 4 l1 9 l-1 3 Z" /><glyph glyph-name="" unicode="&#x5982;" d="M347 627 q6 0 21 -10 q0 -21 5 -52 q-5 -101 -26 -199 q2 -5 4 -8 q20 6 284 120 q22 16 46 6 q14 -22 -11 -37 l-7 6 q-8 5 -13 9 q-76 -33 -176 -74 q-9 -8 -16 -15 q11 -32 9 -67 q-24 -65 -49 -114 q4 -6 9 -11 l45 -26 q26 -35 89 -115 q11 -20 22 -38 l-5 0 l-15 -14 l-16 14 q-33 54 -78 117 q-11 18 -31 24 q-20 6 -34 18 l-16 -16 q-66 -55 -94 -73 q-26 -12 -51 -3 q29 7 50.5 27 q21.5 20 49.5 36 q0 13 21.5 25.5 q21.5 12.5 8.5 30.5 q-13 14 -32.5 3.5 q-19.5 -10.5 -32.5 7.5 q-11 26 5 55.5 q16 29.5 2 60.5 q-62 -25 -107 -41 l-4 -4 q-41 -17 -94 -37 q-12 2 -23 4 q-20 20 0 41 l11 3 l6 -6 q55 0 110.5 23 q55.5 23 107.5 47 q13 95 23 143 q10 53 -12 94 q-7 20 6 39 l8 6 ZM610 408 q11 0 19 -6 q30 -96 102 -163 l6 0 l13 -13 q8 19 20 35 l34 14 l9 9 q43 4 78 31 q7 7 15.5 23.5 q8.5 16.5 -12.5 27.5 l-28 3 l-4 -3 q-65 -17 -117 -56 q-14 -18 -10 -38 l-10 -7 q-12 9 -6 23 q6 14 0 27 q2 6 6 14 q41 20 87 42.5 q46 22.5 97 16.5 q18 -15 24 -35 q-2 -24 -13 -43 q11 -10 3 -22 q-6 0 -59 -18 q-49 -35 -106 -49 l-15 -15 l-14 0 l-10 11 l-24 20 q-32 41 -58 84 q0 5 0 12 l-6 4 l-14 39 l-10 8 q-2 12 3 24 ZM431 368 q-11 -4 -78 -35 q-6 -7 -10 -11 q-8 -50 4 -94 q29 -2 51 -20 q19 35 37 74.5 q18 39.5 5 85.5 l-9 0 Z" /><glyph glyph-name="" unicode="&#x5b50;" d="M474 654 q33 0 59 -23 q19 -35 -3.5 -65 q-22.5 -30 -39.5 -55 l-14 -13 l-9 -14 l-11 -6 l-7 -18 l25 -15 q28 -25 45 -59 q4 -20 8 -41 q4 -4 10 -6 q75 8 117 14 q81 2 165 5 q21 -17 0 -39 l-10 -4 l-3 4 l-6 0 l-5 16 q-85 -2 -98 0 l-2 -4 q-62 -5 -119 -9 q-13 -5 -40 -14 q-7 -143 -9 -250 q-18 -50 -25 -76 q-6 -6 -10 -10 l-12 0 l-4 -12 l-12 5 q-2 25 -4 59 q4 7 8 0.5 q4 -6.5 12 -2.5 q27 60 27 129 q5 86 -9 164 q-102 -18 -220 -35 q-31 -15 -53 -25 l-2 -8 q-17 -19 -35 -6 q-12 4 -20.5 22 q-8.5 18 10.5 27 l24 2 l4 -4 q66 12 162 29 l3 -4 q47 8 125 20 q11 14 2 35 q-6 5 -14 32 l-8 4 l-12 14 q-21 9 -37 9 q-21 -25 -49 -16 l4 18 q12 11 40 35 q56 65 78 92 q0 14 13.5 29 q13.5 15 -1.5 32 q-36 10 -63 16 l-6 -6 q-8 0 -32 -12 l-17 -19 l-16 0 q0 9 2 41 q18 18 42.5 13 q24.5 -5 49.5 5 l2 -1 Z" /><glyph glyph-name="" unicode="&#x5b57;" d="M366 690 q40 -29 90 -35 q9 -8 20 -16 q-4 -12 6 -23 q10 -11 -2 -20 l-8 -6 q-10 6 -11 20.5 q-1 14.5 -14 20.5 l-12 4 l-2 4 q-37 13 -72 27 q-16 13 5 24 ZM278 602 q6 -6 6 -12 l-9 -7 q-5 -16 -10 -29 q5 -25 15 -80 q-10 -14 -15 -27 q-12 35 -24 100 q4 11 10 39 l24 16 l3 0 ZM729 599 q16 -3 59 -5 q21 -11 10 -24 q-37 -16 -67 -47 q-30 -31 -70 -25 l7 6 l55 39 q22 22 22 29 l-64 0 l-2 -5 q-80 -4 -159 -18 q-8 -4 -85 -35 l-17 -18 l-25 -18 l-9 8 q20 23 24 30 q19 9 111 54 q64 8 210 29 ZM440 440 q25 -7 54 -5 q29 2 49 -18 q9 -31 -12.5 -50.5 q-21.5 -19.5 -36.5 -35.5 l-36 -29 l0 -8 q30 -8 51 -35 q18 -8 16 -24 q-2 -16 11 -27 q50 0 279 13 q6 -6 14 -11 q-7 -11 -14 -22 l-13 6 l-4 8 q-43 2 -61 4 l-4 -4 q-70 -3 -123 -3 q-20 -7 -39 -9 q-19 -2 -34 -11 q0 -92 -4 -136 l4 -3 q-4 -13 -4 -44 q-14 -31 -31 -60 l-14 -3 l-6 -8 l-10 4 l0 45 l16 -4 q8 8 21 38 q2 31 5 61 q0 96 -2 117 q-94 -10 -191 -23 l-2 4 q-19 -4 -82 -22 l-4 -10 q-23 -10 -41 4 q-22 18 0 31 q25 0 49 0 q123 13 226 24 q19 5 44 10 q-2 26 -21 49 q-25 19 -53 21 q-10 -9 -43 -17 q-12 8 0 17 q30 12 52.5 37.5 q22.5 25.5 53.5 46.5 q7 11 21.5 25.5 q14.5 14.5 -5.5 31.5 l-24 7 l-2 -4 q-43 13 -77 -12 l-5 -8 l-22 0 q4 6 4 26 q8 11 23.5 9 q15.5 -2 26.5 7 ZM529 380 l0 -7 l2 5 l-2 2 Z" /><glyph glyph-name="" unicode="&#x5c31;" d="M331 647 q14 -6 38 -18 q46 -37 71 -90 q72 17 148 51 q12 0 27 0 q16 -18 -3 -32 l-10 0 q0 5 3 16 l-6 4 l-5 -4 l-14 0 l-6 -7 q-13 0 -20 -2 q-52 -29 -107 -61 q-10 10 -20 3 q-61 -31 -114 -56 l-9 -8 q-43 -21 -53 -25 l-12 -12 q-35 -16 -72 -35 l-8 -7 q-30 -17 -52 -23 q-15 12 1 27 q14 3 29 8 q243 120 290 147 q0 4 0 8 q-31 36 -61 77 l-27 17 q-13 8 -8 22 ZM745 602 q5 0 27 -16 q21 -49 34 -94 q3 -20 0 -39 l-6 5 q-20 67 -55 128 q0 8 0 16 ZM679 445 q-5 -34 -32 -67 q-24 -88 -24 -104 q45 32 114 84 q16 10 4 16 q-12 6 -12 19 l12 1 q31 -30 -4 -55 l-6 0 l-10 -15 l-15 -5 l-2 -6 q-20 -15 -32 -19 l-4 -8 l-53 -45 q-5 -13 -10 -20 q-22 -66 -23 -127 q41 41 47 100 l10 0 q6 -8 13 -15 q2 -42 5 -152 q4 -9 11 -15 q38 -6 85 -12 q66 4 116 0 q0 61 0 125 q-9 61 -9 79 q6 -16 16 -34 q8 -48 15 -80 q2 -5 5 -8 q2 -31 2 -64 q11 -18 9 -38 l-9 0 l-7 -13 q-15 5 -60 9 q-36 -2 -83 -4 q-25 10 -52.5 5 q-27.5 -5 -50.5 11 q-8 11 -14 23 q-4 32 -10 89 l-6 2 q-15 -42 -41 -73 l-20 -11 q-17 18 -11 43 l4 2 l0 15 l5 2 q6 32 15 75 l5 2 q0 10 10 55 l-6 3 l-27 -27 q-16 -16 -35 -10 l0 18 q44 29 78 57 q16 62 39 131 q12 38 37 72 l11 -11 ZM297 390 q3 0 11 -4 q-2 -15 -6 -41 q8 -59 13 -71 l6 -2 q32 61 85 112 l9 2 q25 -33 7 -73 q-40 -88 -62 -178 q-5 -77 13 -151 l-20 -10 q-6 10 -10 22 q-2 33 -6 118 q-4 40 12 76 l-4 2 q-2 55 35 98 l10 0 q6 10 13.5 28.5 q7.5 18.5 0.5 34.5 l-18 -14 q-22 -26 -32.5 -56 q-10.5 -30 -20.5 -58 l-18 -6 q-11 20 -29 79 q-2 28 -5 60 q5 10 16 32 ZM429 129 q14 -7 33 -19 l24 -34 l10 0 q23 -15 13 -37 q-11 -6 -19 -8 q-21 20 -43 52 q-12 13 -29 9 l-5 -9 q-7 4 -17 7 l6 4 l9 25 l18 10 ZM132 67 q9 -11 -4.5 -21 q-13.5 -10 4.5 -15 q40 -23 62 -31 q31 0 39 -4 l-8 -8 l-17 0 l-6 -6 q-32 6 -43 6 l-4 4 q-6 0 -41 24 q-7 19 -14 37 q2 8 4 16 l28 -2 Z" /><glyph glyph-name="" unicode="&#x6001;" d="M373 676 q27 -2 44.5 -27.5 q17.5 -25.5 42.5 -38.5 q38 -43 42 -51 q-24 -26 -57 -20 l-5 -3 q-91 -25 -123 -38 l5 -12 q47 -37 102 -73 q95 -52 250 -135 q159 -70 243 -102 l2 -6 q-15 2 -26 4 q-105 36 -185 67 q-45 22 -147 72 q-103 56 -192 107 l-5 9 l-3 -5 l-8 9 q-18 2 -32.5 17 q-14.5 15 -32.5 10 l-7 7 l-6 2 q-12 -13 -22 -26 q-25 -50 -59 -126 q-8 -33 0 -60 l-29 -2 q-11 39 13 80 q67 134 67 143 q-30 -6 -82 -16 q-8 -6 -16 -13 l4 -12 l-14 0 l-6 6 l-12 6 l-3 23 q90 20 143 32 q9 12 72 127 q22 23 42 45 ZM390 643 q-4 2 -29 -14 q-20 -29 -28 -37 q-29 -36 -31 -73 q80 10 156 42 q6 13 -8.5 23 q-14.5 10 -14.5 24 l-17 15 l-5 8 l-23 12 ZM268 406 q36 -55 96 -138 q0 -9 0 -15 q-11 10 -21 27 l-46 42 q-13 19 -35.5 33 q-22.5 14 -20.5 43 l16 10 l11 -2 ZM112 192 q-10 -45 -8 -96 q-4 -67 25 -122 l18 -10 l-6 -8 l-16 0 q-25 26 -33 62 q0 27 -7 84 q-5 25 5 46.5 q10 21.5 18 45.5 l4 -2 ZM368 149 l25 -18 q18 -11 13 -29 l-8 -2 l-8 8 q-26 0 -43 23 l0 16 l14 8 l7 -6 ZM567 149 q48 -14 99 -35 q24 -2 49 -4 q24 -12 53 -28 q4 -13 0 -21 q-10 0 -18 -5 q-55 0 -131 4 l-4 5 l-7 -4 l0 6 q19 2 49 15 q-63 53 -141 40 l-2 -3 l-16 0 l-4 -7 q-29 -10 -43 -16 l-6 11 q19 9 27 9 l8 9 q39 24 87 24 ZM226 96 q19 -24 52 -78 q32 -30 77 -32 q45 -2 85 -19 q27 -2 50 15 q-21 57 -68 96 q21 7 34 -18 q13 -25 36 -24 q27 -28 41 -62 q-2 -9 -4 -16 l-9 -7 l-8 -8 q-43 2 -88 -2 q-83 23 -163 55 q-20 40 -42 76 q-2 11 2 24 l5 0 Z" /><glyph glyph-name="" unicode="&#x60c5;" d="M529 723 l4 -8 l8 -2 q13 -23 6.5 -46.5 q-6.5 -23.5 6.5 -41.5 q48 2 96.5 19 q48.5 17 99.5 13 q10 -10 11 -22 q-18 -16 -30 -23 q-16 3 -34 -2 l0 13 q13 -4 26 10 l0 4 q-88 -16 -137 -22 l-3 -7 q-11 0 -31 -9 q-13 -29 -7 -60 q11 -2 35 -10 q16 -17 6 -37 l-41 -39 l0 -8 q51 4 233 33 q57 12 113 0 q9 -20 -9 -35 q-13 -16 -24 -8 q0 14 2 27 q-197 -25 -324 -44 q-56 -20 -113 -34.5 q-57 -14.5 -106 -38.5 q-11 0 -20 0 q-5 19 0 33 q42 37 105 35 q63 -2 107 47 q10 20 5 44 q-36 8 -69 -12 q0 -8 -8 -16 l-17 4 q-5 24 -5 39 q20 14 48.5 9 q28.5 -5 52.5 8 q3 50 -2 58 l-2 -4 q-22 -2 -44.5 -14.5 q-22.5 -12.5 -40.5 0.5 l-7 -9 q-36 -9 -65 -13 l-4 20 q9 6 17 12 q77 -8 155 35 q-7 16 1.5 37 q8.5 21 -5.5 39 l-12 2 q-9 18 7 27 l15 -3 ZM212 594 q21 -55 31 -116 q0 -56 0 -110 q-24 -82 -39 -166 q2 -80 -12 -155 q4 0 12 2 q11 -16 6 -37 q-8 -12 -20 -36 q-7 0 -14 -4 l-6 -10 l-13 3 q-2 13 -6 25 q3 9 6 16 q8 121 21 251 l-41 4 q-25 14 -25 45 q-12 67 -5 134 l9 3 q6 -8 15 -14 q-6 -74 16 -141 l27 0 q4 4 9 10 q5 139 16 296 l13 0 ZM545 504 q-12 -10 -2 -22 l9 6 l7 14 l-14 2 ZM223 474 q-2 -10 2 -14 l1 12 l-3 2 ZM225 460 q-4 -4 -6 -66 l6 0 l1 64 l-1 2 ZM221 388 l0 -6 l4 4 l-4 2 ZM631 376 q4 0 32 -10 q16 -17 16 -21 q-16 -73 -13 -146 q31 5 63 11 q-25 -18 -30 -20 l-9 -9 l-27 -18 q7 -110 7 -163 q9 -53 18 -78 q-2 -9 -4 -20 l-12 -4 l-9 -7 l-16 3 q-24 21 -24 51 l14 0 q4 4 8 9 q-8 140 -14 200 q-35 -22 -88 -62 q-20 -18 -41 -10 l0 26 q23 19 81 57 q9 21 -11 35 q-52 19 -94 -14 q-11 -51 -2 -99 q6 0 16 -4 q6 -30 -4 -54 q-6 0 -23 -11 q-25 42 -20 96 q6 45 4 95 q-2 50 23 95 q8 2 18 6 q12 -8 21 -12 q5 15 20 33 q45 29 100 45 ZM617 345 q-47 -16 -84 -45 l-4 -8 q-13 -12 -27 -6 q-22 -21 -18 -47 q39 -6 81 -6 q13 -7 25 -12 q18 -31 27 -43 l16 8 q4 82 12 149 q-6 4 -10 10 l-18 0 Z" /><glyph glyph-name="" unicode="&#x6574;" d="M251 717 q4 0 17 -4 q-3 -7 3.5 -15 q6.5 -8 0.5 -10 l3 -2 q3 -51 3 -78 l-4 -3 l6 -6 l65 -3 q19 -18 2 -40 q-39 -47 -79 -100 q-3 -11 -3 -19 q9 -2 52 8 q26 2 47 -16 q9 -21 -6 -37 q-15 -16 -23 -28 q-14 -21 -35 -13 l-8 25 q8 14 27 10 l7 14 l7 2 l0 11 q-39 11 -70 -11 q0 -128 5 -141 q7 -2 16 -2 q82 38 147 72 q4 -2 9 -5 l-18 -16 l-9 0 l-9 -13 q-31 -25 -68.5 -36 q-37.5 -11 -63.5 -36 q-13 -35 -7 -70 q-12 2 -20 -7 q-8 -9 -17 6 q-5 25 7 54 q-12 9 -25.5 -3.5 q-13.5 -12.5 -26.5 -5.5 l-2 -5 l-9 -6 l-7 -9 l-8 0 l-2 -3 q-33 -29 -70 -21 q-3 6 -5 23 q74 77 135 165 l15 2 q-2 19 3 35 q-7 4 -12 8 q-40 -15 -72 -22 q-4 3 -2 28 q49 19 86 62 q4 24 8 109 q-4 2 -6 7 q-12 0 -104 -13 q0 13 8 24 q76 11 108 17 l-4 2 q4 5 8 8 q8 51 -6 100 q2 3 6 7 ZM523 637 q-7 -10 -7 -20 l-5 -5 q-25 -83 -35 -118 q4 -2 10 -2 q8 6 16 15 q90 32 139 52 q31 19 63 37 q29 11 57 16 q9 -7 13 -20 q-13 -16 -31 -4 q-167 -77 -276 -128 q-14 0 -20 2 q-7 24 6 49 q25 26 27 63.5 q2 37.5 31 68.5 l12 -6 ZM290 574 l-15 0 q-12 -31 -5 -63 l5 -2 q13 11 26.5 25.5 q13.5 14.5 17.5 35.5 l-27 6 l-2 -2 ZM552 440 q2 -7 4 -11 q-17 -43 -31 -80 q27 -25 55 -48 q28 -23 63 -38 q63 -35 133.5 -49 q70.5 -14 140.5 -33 l2 -9 q-25 2 -78 9 q-3 2 -8 7 q-4 -2 -9 -5 q-24 7 -134 36 q-27 9 -65 26 q-26 16 -53 33 l-7 6 q-20 0 -31 15.5 q-11 15.5 -27 15.5 q-13 -25 -38 -64 l-7 -6 q-13 -22 -22 -43 q40 -3 79 19 q8 -6 18 -13 l0 -16 q-59 -51 -75 -60 l-40 -45 q-20 -15 -44 -31 q-9 -11 -54 -60 q0 -18 -18 -34.5 q-18 -16.5 0 -28.5 q35 3 52 0 l3 5 q68 7 131 13 q-6 16 -8 33 q20 4 35 -12 q1 -8 22 -29 l11 0 q9 -12 4 -23 l-13 0 q-2 -3 -7 -11 q-58 10 -116 6 q-73 -13 -103 -15 q-20 4 -47 13 q-7 23 -9 34 q36 49 74 96 l105 89 l9 19 l18 14 l0 13 q-71 -17 -154 -33 q-5 2 -9 6 l0 10 q43 15 100 33 q9 41 18 74 q13 0 31 2 q11 16 37 69 q-10 10 -21 21 q-18 11 -34 26 q-13 -4 -20 0 q-9 8 -17 22 q-8 14 13 27 l22 0 l7 -8 q9 -5 64 -56 q12 22 29 62 l8 7 l11 0 ZM202 288 q-37 -45 -55 -73 q20 -7 45 3 q25 10 45 23 q0 40 -4 61 l-14 0 l-17 -14 ZM190 286 l0 -6 l2 4 l-2 2 ZM666 78 q29 -11 61.5 -5.5 q32.5 5.5 62.5 -7.5 q14 -9 5 -26 q-15 -8 -25 -10 q-27 10 -53 4 l-13 12 q-23 6 -44 0.5 q-21 -5.5 -39 -6.5 l-4 -4 q-12 0 -23 -10.5 q-11 -10.5 -16 2.5 l-4 9 l8 4 l8 9 q33 25 76 29 ZM404 58 q23 -7 86 -19 q6 -4 12 -8 l0 -17 q-24 0 -49.5 -3 q-25.5 -3 -44.5 16 q-2 6 -10 12 q-8 6 6 19 ZM343 27 l0 -7 l2 4 l-2 3 Z" /><glyph glyph-name="" unicode="&#x6587;" d="M280 647 q4 0 17 -4 l20 -24 l38 -37 q13 -19 30 -40.5 q17 -21.5 3 -45.5 l-10 -8 q-17 14 -5 35 q-9 13 -20 26 l-38 31 q-11 12 -34.5 29.5 q-23.5 17.5 -0.5 37.5 ZM702 592 q13 -2 21 -9 q8 -22 -13 -34 l-18 18 q-85 -28 -218 -81 q-244 -108 -291 -126 l-2 -5 q-30 -16 -62 -16 q-17 8 -5 25 q29 9 103 32 q232 98 366 158 q56 18 119 38 ZM400 382 q4 0 22 -9 q-14 -93 -75 -169 q73 -84 139 -157 q18 -11 51 -25 q144 -11 359 -26 l-3 -6 q-17 4 -35 -8 q-18 -12 -31 6 l-5 -4 q-11 0 -24 -4 q-12 2 -22 6 q-4 -2 -6 -4 q-190 10 -282 17 q-57 48 -98 113 q-22 7 -33.5 31 q-11.5 24 -34.5 24 q-12 -20 -50 -77 l-25 -12 q-8 7 -10 14 l16 12 q47 75 55 92 q-27 29 -51 59 l-34 26 l-2 5 q-15 0 -22 4 q-5 25 13 45 q13 6 23 -6 q4 -10 24 -32 l16 -9 l54 -63 q18 28 38.5 58 q20.5 30 26.5 66 l-8 6 l0 18 l14 9 Z" /><glyph glyph-name="" unicode="&#x65b9;" d="M386 572 l32 -39 q56 -29 102 -51 q13 -22 -8 -37 q160 35 286 66 q23 0 47 0 q19 -11 8 -25 q-15 -8 -31 -27 q-16 -19 -32 -10 l-2 13 l27 22 l-6 6 q-143 -30 -201 -41 l-1 -4 q-64 -16 -131 -32 l-2 -5 q-74 -18 -143.5 -42.5 q-69.5 -24.5 -136.5 -52.5 q-24 -3 -47 -7 q-12 13 2 29 l23 12 l6 -6 q21 4 43 8 q173 55 291 94 q-10 10 -12 22 q-35 21 -76 31 q-13 11 -28 20 l-25 29 q-5 -4 -20 -8 q-8 12 4 24 l23 15 l8 -4 ZM509 406 q18 -4 45 -13 q69 -52 65 -138 q-4 -63 -33 -118 q-16 -33 -47 -90 q-19 -2 -35 0 q-30 38 -6 78 l14 -11 q7 -18 15 -31 q20 27 33.5 61.5 q13.5 34.5 29.5 70.5 q12 59 -12 109 l-13 -24 l-7 0 q-15 -22 -51 -85 q-21 -21 -136 -137 q0 -20 -18 -31 l-10 4 l-8 -12 l-13 4 q-3 17 0 29 l49 42 q72 64 129 143 q11 31 23 60 q24 28 31 41 q-27 26 -60 11 l-18 -22 q-12 -10 -20 2 q2 29 26 47 l27 10 Z" /><glyph glyph-name="" unicode="&#x679c;" d="M623 650 q29 2 56 -15 q27 -30 11 -64 q-16 -34 -29 -60 l-4 -2 l4 -7 l-6 0 q-14 -28 -56 -89 q6 -31 -17 -49 l-26 -21 q-13 -14 -2 -18 q11 -4 11 -15 q35 -8 70 9 q8 0 17 -4 l5 -11 l-5 -2 l-13 -12 q-34 -12 -67 -21.5 q-33 -9.5 -58 -29.5 q2 -58 6 -112 q7 -19 11 -31 l-4 -4 q4 -25 14 -110 l-12 0 l-9 -8 q-18 -10 -36 -2 q-15 4 -47 18 q-15 9 0 18 q14 -2 31.5 -9 q17.5 -7 33.5 5 q-2 54 -12 131 q2 2 4 6 q-6 31 -12 80 q-4 2 -8 4 q-70 -49 -143 -84 q-29 26 2 51 q71 55 151 116 l0 39 q-22 2 -35.5 -17.5 q-13.5 -19.5 -33.5 -12.5 q-9 16 7 30 l50 37 q24 12 17 37.5 q-7 25.5 3 47.5 q-4 3 -6 5 q-39 -18 -78 -29 q-2 19 3 22 q53 23 83 40 q6 24 15 51 q2 14 0 25 q-69 -29 -111 -52 l-20 -20 l-31 -4 q-14 7 -8 26 q74 16 138 58 q64 42 140 56 l4 5 l2 -2 ZM647 625 q-35 10 -61.5 -6.5 q-26.5 -16.5 -52.5 -22.5 q8 -29 -2 -60 q18 -48 21 -64 q-19 -37 -36 -66 q3 -4 4 -6 q27 6 58 18 q37 60 53 84 q14 34 41 80 q-2 12 -13 37 l-12 6 ZM281 586 l17 0 l17 -25 l-13 -2 l-10 11 q-8 -51 6 -101 q15 -40 39 -120 q8 -14 31 -45 q20 -4 28 0 q4 -4 10 -6 q11 -10 2 -18 q-35 -10 -59 12 q-28 32 -41 76 q-6 22 -28 90 q-8 58 -15 71 q-8 34 10 63 l6 -6 ZM519 371 q-5 -5 -5 -28 l9 0 q6 8 13 17 q-5 4 -5 11 l-12 0 ZM545 324 l-18 -7 q-25 -20 -11 -49 l40 13 q11 9 -3 18 q-14 9 -6 23 l-2 2 ZM482 278 l-26 -17 l-7 -6 l-14 -4 q-6 -12 -16.5 -17.5 q-10.5 -5.5 -5.5 -14.5 q34 14 71 36 l0 20 l-2 3 ZM131 151 q8 3 13 -8 q5 -11 15 -11 q-16 -24 0 -54 q8 -22 37 -88 q0 -10 0 -18 l-18 14 q-21 45 -46 99 l5 5 q-23 26 -6 61 ZM509 147 l0 -6 l2 4 l-2 2 ZM719 137 q7 -5 32 -10 q35 -27 70 -51 q8 -15 61 -70 q0 -7 2 -14 l-22 -4 l-2 -8 l-11 0 l-18 20 l-27 20 q-26 7 -12 20 q14 13 -2 21 l-18 17 l-17 16 l-36 20 q-4 15 0 23 ZM183 -4 l0 -6 l3 4 l-3 2 Z" /><glyph glyph-name="" unicode="&#x6848;" d="M413 717 q38 -15 67 -25 q29 -24 10 -57 l-10 0 q-4 10 -11 28 q-26 13 -56 34 q-9 0 -15 0 l-4 11 q6 2 19 9 ZM725 608 l18 0 l5 -3 q16 -9 35 -6 q19 3 32 -16 l2 -9 q-13 -2 -22 -4 q-9 -7 -17 -12 q-47 -19 -83 -31 l-5 -4 q-11 -3 -43 -12 l-4 3 q47 27 92 58 l-6 8 q-43 -2 -84 -4 q-86 -15 -93 -18 q-7 1 -11 3 q-16 -9 -55 -18 l-6 -6 q-31 -14 -62 -28 l-5 5 l27 29 q34 18 75 26.5 q41 8.5 79 22.5 q65 7 129 18 l2 -2 ZM251 608 q8 -20 -14 -30 q-2 -53 -7 -131 q5 -39 31 -67 q29 -16 61 -12 q105 36 113 43 l8 13 l22 19 l2 10 l13 9 q32 58 40 71 l11 -6 q21 -18 4.5 -24.5 q-16.5 -6.5 -10.5 -20.5 q-25 -17 -37 -20 l-14 -22 l-9 -5 l-5 -13 q77 23 246 76 q66 22 129 4 q10 -24 -6 -42 q-10 0 -23 -7 q3 11 7 31 q-37 0 -76 2 l-6 -6 q-34 -11 -57 -11 l-2 -5 q-18 -13 -37.5 -12 q-19.5 1 -32.5 -12 q-2 -16 -2 -29 q-20 -29 -44 -60 l-9 -2 l-4 -10 q22 0 45 0 q37 6 66 14 q22 -2 67 -2 q10 -4 20 -8 q9 -17 -4 -22 q-27 -8 -47 12 q-57 -9 -123 -18 q-28 0 -55 0 q-40 -7 -77 -23 q-17 0 -49 -6 l-4 -5 l-6 0 l-10 -9 l-17 3 l-6 -5 q-30 -2 -49 -2 q-43 4 -73 30 q-19 8 -11 28 q23 25 58 23 l2 6 l-19 9 q-25 22 -40 52.5 q-15 30.5 -7 67.5 q0 32 12 64 q12 32 35 60 ZM572 435 q-53 -20 -108 -39 q-8 -6 -15 -12 l7 -13 q22 -18 42 -28 q25 12 43 28 q24 25 37 60 l-4 2 l-2 2 ZM424 380 q-9 -4 -24 -4 q-49 -21 -116 -45 q-14 -10 -29 -18 q0 -23 23 -33 q44 -8 89.5 10 q45.5 18 90.5 34 l9 11 l-27 23 l-13 20 l-3 2 ZM541 286 q22 -25 18 -58 l-3 -2 q3 -7 3 -21.5 q0 -14.5 -7 -18.5 l-41 -31 l3 -6 l-3 -2 q5 -64 18 -135 q18 -42 34 -87 l-11 -6 l-7 -8 q-47 -13 -78 25 q9 9 23 4.5 q14 -4.5 26 4.5 q-14 66 -28 124 q-4 31 -6 62 q-4 1 -6 6 q-9 -5 -23 -5 l-4 -7 l-9 0 q-3 -9 -7 -13 q-18 -22 -43 -16 q-22 12 -6 31 l9 -8 q24 10 40 16 q18 16 51 35 l0 11 l4 2 q16 56 26 91 q6 7 13 16 l14 -4 ZM537 226 l-4 -3 l-6 -2 q-11 -15 -2 -25 l14 12 l0 17 l-2 1 ZM139 83 q20 -36 24 -81 q13 -20 58 -69 q-2 -8 -4 -16 l-11 0 l-6 8 l-39 31 q-16 24 -35 62 q-19 38 9 67 l4 -2 ZM750 61 q24 6 41.5 -13 q17.5 -19 41.5 -19 l8 -9 l35 -12 q15 -16 18 -28 q-25 -15 -32 -16 l-13 14 q-34 21 -51 24 l-20 25 q-25 12 -53 8 l-8 8 l-15 -4 l-5 8 l9 4 l4 -4 l40 14 ZM872 -12 l-8 -4 l5 -6 l5 8 l-2 2 Z" /><glyph glyph-name="" unicode="&#x6bd4;" d="M514 537 q-2 -35 -5 -97 q11 -29 12.5 -63 q1.5 -34 17.5 -62 l8 -2 q23 32 53 73 q12 25 5 47 q18 25 28 53 q10 4 22 0 q0 -64 -36 -125 q-37 -48 -70 -83 q-20 -8 -35 3 q-5 17 -10 36 q5 47 -4 91 q-8 -32 -28 -140 q-5 -40 -8 -78 q-4 -33 16 -55 q6 -3 12 -3 q98 25 165 40 q38 4 80 9 q29 0 60 2 q25 -9 48 -18 q13 -8 12 -25.5 q-1 -17.5 -13 -23.5 q-15 4 -49 9 q-40 -13 -77 -30 q-37 -17 -73 -17 q-10 4 2 12 l108 57 l0 7 q-138 -9 -269 -47 q-10 1 -19 3 q-32 41 -27 98 q13 94 42 282 q2 29 18 55 l14 -8 ZM147 449 q10 0 25 -9 q4 -18 7 -34 q0 -131 -3 -161 q3 -100 7 -113 q105 25 190 93 q29 38 44 55 q0 -8 0 -15 q-23 -35 -35 -57 q-41 -45 -95 -66.5 q-54 -21.5 -93 -59.5 q-20 -13 -31 10 q-8 33 -14 102 q10 121 -8 243 q2 6 6 12 ZM335 413 l2 -15 q-18 -12 -53 -45 q-14 -27 -36.5 -46 q-22.5 -19 -26.5 -46 q-21 -20 -35 -2 q-3 4 -3 11 q43 56 103 136 l31 21 l18 -14 Z" /><glyph glyph-name="" unicode="&#x6d88;" d="M663 745 q9 -26 9 -57 q-17 -76 -11 -145 l11 6 l23 -29 q20 -8 34 9.5 q14 17.5 35 24.5 q10 11 26 23.5 q16 12.5 19 34.5 l20 0 q6 -16 -5 -30.5 q-11 -14.5 -18 -22.5 q-28 -18 -58.5 -44.5 q-30.5 -26.5 -68.5 -14.5 q-5 19 -13 36 l-9 0 q4 -11 0 -69 l-12 -3 q-20 28 -14 67 q6 92 8 179 q6 19 6 27 l14 8 l4 0 ZM512 610 q8 -11 19 -24 q-4 -61 21 -114 l20 -12 l0 -17 l-23 4 q-24 18 -33 51 q-20 58 -7 114 l3 -2 ZM509 565 l0 -6 l2 4 l-2 2 ZM253 539 q6 0 45 -25 q4 -7 37 -40 q10 -12 6 -23 q-4 -2 -8 -2 q-31 23 -80 60 q-3 18 0 30 ZM717 519 l0 -7 l2 4 l-2 3 ZM549 465 l0 -5 l3 4 l-3 1 ZM741 458 q2 0 19 -9 l6 -9 l14 -11 q4 -11 8 -21 q-2 -69 -6 -95 q4 -35 11 -111 q-3 -8 -5 -16 l7 -3 q-5 -18 -7 -34 q-2 -51 10 -96 q-1 -77 -1 -117 l5 -3 q-5 -14 4 -26.5 q9 -12.5 0 -22.5 q-8 0 -26 -13 q-16 9 -22.5 24.5 q-6.5 15.5 -12.5 29.5 q5 18 13 31 q2 20 0 48 q2 12 6 16 q-3 45 -9 65 q0 62 6 105 q-8 60 -11 123 l3 2 q-5 26 1.5 59.5 q6.5 33.5 -17.5 56.5 q-24 9 -38 -14 l-36 -35 l-16 -4 q0 16 10 35 q9 9 19 22 q12 2 34 16 q15 2 31 7 ZM556 458 l0 -7 l2 5 l-2 2 ZM704 424 l-2 -4 l0 7 l2 -3 ZM672 422 l0 -5 l2 3 l-2 2 ZM259 353 q19 -2 58 -6 q14 -6 28 -12 q15 -13 2 -20 l-16 -2 l-5 4 q-11 4 -24 7 q-34 -5 -72 -7 q-11 12 -2 24 l31 12 ZM547 349 q2 -6 7 -10 q-17 -55 -29 -100 q0 -24 -2 -49 q13 -80 22 -129 q-8 -5 -4 -15 q4 -10 8 -13 l10 3 l6 13 l9 2 q12 -15 -0.5 -27.5 q-12.5 -12.5 -17.5 -19.5 q-20 -2 -37 2 q-12 104 -23 211 q15 69 20 93 q-2 9 -4 16 l25 23 l10 0 ZM451 345 l-4 -2 q-30 -73 -87 -126 q-74 -70 -148 -137 q-13 -19 -34 -13 q-13 15 -2 33 q18 16 38.5 32.5 q20.5 16.5 48.5 28.5 q54 43 110 98 q42 49 76 88 l2 -2 ZM590 302 q39 -2 125 -4 q10 -10 22 -20 q0 -6 2 -13 q-40 -63 -53 -82 q20 5 49 13 l-6 -18 l-8 0 l-6 -6 q-34 -13 -59 -34.5 q-25 -21.5 -57 -21.5 q-5 6 -5 23 q25 15 45 33 l27 28 l4 2 q4 15 25.5 36 q21.5 21 -0.5 40 q-34 -3 -65 -10 q-31 -7 -63 0 q-8 6 -13 12 l4 17 q5 7 14.5 -1 q9.5 -8 17.5 6 ZM623 280 l0 -6 l2 4 l-2 2 ZM519 247 l0 -6 l1 4 l-1 2 ZM337 210 l0 -6 l2 4 l-2 2 ZM770 63 l0 -5 l2 3 l-2 2 Z" /><glyph glyph-name="" unicode="&#x6e90;" d="M774 659 q23 0 39 -4 q18 -18 -7 -34 q-30 -13 -53 -16 l-5 -6 q-9 -3 -23 3 q28 13 59 25 l0 10 q-55 0 -108 -11 q-53 -11 -104 -21 q16 -42 33 -85 q-6 -20 -13 -28 q-6 44 -36 78 q-4 13 -7 35 q-51 -11 -93 -22 q-9 3 -16 5 q-5 -6 -11 -12 q8 -39 -2 -84 q6 -30 13 -61 q5 -35 26.5 -60.5 q21.5 -25.5 40.5 -51.5 l32 -15 l8 -16 l33 31 l0 5 q-24 -2 -39 17 q-5 12 -10 30 l6 5 l4 10 q22 7 35 14 l2 -4 q49 22 106 28 l6 -7 l9 -2 q11 14 24.5 31.5 q13.5 17.5 19.5 41.5 q-8 2 -14 6 q-57 -14 -74 -16 l-3 -4 q-64 -23 -76 -23 l-2 -4 l-47 -30 l-4 -21 l-12 -8 q-4 10 -13 45 q2 7 4 12 q76 27 197 66 q34 16 69 0 q18 -23 2 -46 q-17 -22 -44 -57 q-42 -35 -93 -69 q-8 -15 4.5 -20.5 q12.5 -5.5 -0.5 -16.5 l-22 -16 q-7 -14 -21 -47 q0 -67 0 -135 q6 -48 25 -90 q0 -12 0 -24 l-17 0 l-8 -12 q-31 18 -19.5 51.5 q11.5 33.5 -7.5 60.5 q-2 93 0 163 q-4 4 -6 8 l-9 -6 q-9 13 -13 25 q-27 -6 -43 14 q-6 8 -29 35 q-7 14 -40 71 l-7 0 q-18 -74 -30 -116 l-6 -4 q-23 -52 -49 -115 q-33 -55 -72 -132 q-13 -17 -57 -77 l-6 0 q41 71 94 163 q27 60 77 171 q25 71 33 147 l7 3 q-5 13 -18 50 q3 17 11 26 q2 47 4 58 q-24 8 -45.5 -5 q-21.5 -13 -40.5 3 q-3 14 -3 22 q81 -2 165 16 q143 25 290 49 ZM188 567 q6 -4 33 -24 l4 -12 l10 -4 q12 -13 26 -41 q-14 -12 -24 8 l-4 8 q-7 2 -43 29 q0 8 -9 18 q-9 10 7 18 ZM151 398 q19 -5 41.5 -6.5 q22.5 -1.5 40.5 -15.5 q2 -5 -5 -12 q-18 18 -44.5 10 q-26.5 -8 -44.5 -1 l0 17 l8 4 l4 4 ZM641 396 q-18 -8 -53 -25 q-2 -7 -15.5 -13.5 q-13.5 -6.5 -0.5 -12.5 q22 -6 40 10 q3 11 18 17 q15 6 13 22 l-2 2 ZM300 331 q-3 -10 -12 -43 q-20 -20 -38 -41 l-5 -2 l-17 -17 q-45 -28 -79 -58 l-24 -31 q-11 0 -29 -7 q-18 19 -1 32.5 q17 13.5 25 31.5 q11 3 23 4 q40 28 102 72 l47 52 l8 7 ZM215 235 l0 -7 l2 5 l-2 2 ZM404 157 q-6 -30 -10 -53 q12 -43 19 -65 q5 -10 14 -19 q16 -8 40 -9 q7 -12 -7 -19 q-31 -4 -52 14 q-24 29 -35.5 75 q-11.5 46 21.5 78 l10 -2 ZM723 154 q22 -7 51 -15 q16 -10 41 -25 l2 -7 q36 -29 83 -44 q11 -7 20 -16 l3 -12 l-23 -6 l-4 -9 q-32 15 -69 16 q-14 9 -23 15 q20 18 -2 32 q-16 25 -43.5 26 q-27.5 1 -43.5 23 q-7 13 8 22 Z" /><glyph glyph-name="" unicode="&#x7528;" d="M647 641 q52 -8 108 -12 q25 -4 43 -22 q-3 -138 0 -239 l4 -2 q15 -151 25 -247 q-5 -29 -10 -58 q-24 -5 -45 -10 q-2 9 -17 29 l-29 27 q-36 52 -50 79 q37 -27 88 -66 l0 -6 q8 -16 20 -7 q2 22 4 47 q-4 32 -10 91 l4 2 q-4 14 -8 27 q2 77 -13 155 q-6 29 5 55 q-6 57 -11 110 q-36 6 -79 18 q-6 0 -51 5 q-37 -7 -53 -7 q-31 -10 -80 -24 l-4 4 l-21 -7 l0 -7 q-9 -6 -24.5 -18.5 q-15.5 -12.5 -24.5 0.5 l4 5 q13 7 27 19 l13 23 q45 10 137 28 l3 4 l45 4 ZM537 563 q19 -11 13.5 -31.5 q-5.5 -20.5 8.5 -33.5 q21 -4 45.5 12.5 q24.5 16.5 45.5 -6.5 q5 -12 -5 -20 q-10 -8 -10 -17 l-4 -2 q-29 -45 -57 -87 q8 -25 18 -47 q-4 -9 -6 -16 l-28 -23 l-4 -80 l-5 -2 q3 -43 7 -98 q-4 -4 -7 -8 q5 -68 -10 -130 q-12 16 -16 26 q0 40 -11 108 q4 8 4 143 q-18 4 -26 -14 q-8 -18 -23 -18 l-22 -23 l-12 0 l-6 -6 l-7 4 q-2 8 -2 18 q22 25 44 49 q22 37 57 86 q0 31 -3 109 q-4 2 -7 6 q-11 -6 -31 -6 l-2 -5 q-18 -11 -29 -11 l-2 -3 q-12 -24 -27.5 -14 q-15.5 10 -29.5 6 q-19 16 0 29 q14 0 30 2 q33 9 70 18 l4 4 q17 0 24 6 q3 28 -2 32 q5 32 11 43 l12 0 ZM196 536 q8 -103 4 -215 q4 -33 10 -122 q2 -5 7 -7 l6 7 q3 -7 3 -29 q-7 -25 -14 -41 q-10 0 -18 -4 l-8 -9 q-8 114 -14 264 q0 118 2 159 l22 -3 ZM602 482 l-43 -10 q0 -32 4 -45 l11 -5 q25 40 34 50 q-1 4 -3 8 l-3 2 ZM511 300 l-13 -3 l0 -11 l13 4 l1 8 l-1 2 ZM817 100 l0 -6 l2 4 l-2 2 Z" /><glyph glyph-name="" unicode="&#x7684;" d="M688 572 q13 -18 5.5 -35 q-7.5 -17 -3.5 -33 q-35 -98 -51 -146 q51 32 111 50 q36 14 72 -2 q31 -75 19 -165 q-17 -65 -24 -98 q-11 -12 -53 -87 q-13 -3 -27 -11 q-8 15 -24 49 q-12 31 0 60 q18 -11 18 -32.5 q0 -21.5 19 -29.5 l11 10 q43 61 51.5 133.5 q8.5 72.5 -1.5 146.5 q-18 6 -38 5 q-20 -1 -36 -5 l-4 4 q-10 -8 -92 -60 q-29 -20 -51 -5 q18 40 47 87 q10 50 26 104 q-4 4 -6 8 l-26 -24 q-68 -79 -100 -116 q-12 -22 -20 -45 l-4 -2 q2 -14 -10.5 -23.5 q-12.5 -9.5 -6.5 -21.5 l-6 -4 l0 -12 l-4 -2 q-6 -23 -16 -49 l-11 -6 q-4 -19 -6 -29 l-7 -7 l-5 -9 q-15 -9 -27 -15 q-35 2 -59 6 q-30 15 -12 39 l57 50 q41 44 84 89 q14 12 2 27 q-37 5 -68.5 -13 q-31.5 -18 -62.5 -29 l-2 -5 q-18 -13 -32.5 -33.5 q-14.5 -20.5 -36.5 -13.5 q-8 26 20 43 q66 46 145 73 q35 8 69 -8 q90 89 169 192 l7 0 ZM347 520 q11 -16 13 -28 q-2 -18 0 -45 q-7 -7 -11 -10 q-16 21 -12 49 q-13 6 -21 -3 q-8 -9 -18 -9 l-17 -23 l-18 0 q-16 16 11.5 26.5 q27.5 10.5 27.5 26.5 l31 19 l14 -3 ZM179 415 q-5 -89 27 -165 q31 -38 62 -72 l63 -49 l8 -17 l-18 -10 l-8 8 l-70 55 q-49 50 -73 115 q-25 73 -5 142 l14 -7 ZM453 281 q-22 -26 -38 -55 l-9 -1 q-10 -19 -18 -35 q12 -11 25 4 q32 36 43 86 l-3 1 ZM607 265 q12 0 24 -6 q24 -22 26 -53 l-12 4 l-20 20 q-10 3 -20 11 q-3 9 2 24 Z" /><glyph glyph-name="" unicode="&#x7e41;" d="M679 713 q18 -14 9 -34 q-25 -52 -53 -93 q33 2 129 6 q26 -6 53 -12 q30 -21 17 -51.5 q-13 -30.5 -32 -46.5 l-41 -33 q17 -9 25 -9 l7 -7 q42 -11 81 -33 q0 -12 12 -15 q12 -3 7 -16 l-9 -1 l-10 -10 q-39 -5 -68 0 l0 20 q11 2 18 6 l-3 9 q-49 20 -100 27 q-53 -38 -116 -40 q-19 6 -21 23 q-2 17 -10 32 q-13 -4 -27 -6 q-8 6 -20 8 q-4 -4 -8 -6 q-12 -29 -47 -105 q-25 -13 -48 -4 q-16 15 -7 31 q16 0 32 -2 q13 22 35 78 q-26 -2 -51 -7 q-18 -9 -40 -22 q0 -18 -12 -30 q-12 -12 -15 -25 l-25 -21 l0 -5 q23 3 59 3 q22 -18 -2 -34 l-12 -4 l-13 13 q-38 -7 -81 -19 q-47 -13 -90 2 q-30 20 -1 38.5 q29 18.5 36 39.5 q-20 13 -43 8 q-47 -6 -86 -8 q-8 15 8 30 q65 30 84 36 q70 -16 126 16 q17 24 34 46 q11 16 8 30 q-25 -5 -39 -5 q-16 -9 -76 -35 q-16 -11 -28 2 q0 16 5 24 q64 21 156 50 q10 15 4 31 q-19 7 -37 -5.5 q-18 -12.5 -32 0.5 l-2 -4 q-25 -4 -49.5 -23.5 q-24.5 -19.5 -46.5 -1.5 q0 9 0 18 q42 64 71 107 q12 12 30 5 q-5 -24 -26 -40 q-17 -32 -23 -53 q64 19 131 22 q7 -3 14 -8 q13 -14 2 -24.5 q-11 -10.5 -5 -21.5 q30 -2 69 -5 q18 -13 21.5 -38 q3.5 -25 8.5 -44 q25 -7 54 2 q8 3 5 12 q-3 9 3 17 q12 9 30 0 q53 -29 117 -42 q41 24 77 64 q17 21 -2 38 q-34 5 -71 12 q-32 2 -63 -10.5 q-31 -12.5 -59 -0.5 q-21 13 -7 37 q41 63 74 119 l5 -2 ZM464 520 q-24 3 -62 -4 q-4 -7 -8 -16 q4 -6 10 -18 q-4 -8 -4 -42 q37 3 88 18 q2 2 6 6 q-10 20 -22 55 l-8 1 ZM605 460 q3 -15 0 -33.5 q-3 -18.5 16 -24.5 q58 20 71 31 q-13 7 -77 27 l-10 0 ZM369 458 q-18 -18 -18 -25 q10 -9 18 4 l2 19 l-2 2 ZM366 402 q-44 2 -72 -24 l-8 -14 q27 -40 53 -6 q19 24 27 44 ZM221 398 q-38 0 -60 -27 l0 -5 q45 12 96 7 q11 9 21 17 l-6 6 l-49 0 l-2 2 ZM570 376 q12 -25 -14 -39 q-23 -18 -98 -72 l6 -6 q67 16 132 38 q19 9 39 22 q8 -2 17 -4 q11 -11 1 -17 q-10 -6 -12 -12 l-22 -18 q-12 -25 -37.5 -40.5 q-25.5 -15.5 -27.5 -39.5 q18 0 41.5 14.5 q23.5 14.5 41.5 -2.5 q6 -17 -5 -23.5 q-11 -6.5 -15 -13.5 l-21 -14 q-6 12 -10 27 l-25 -11 q6 -33 -19.5 -47 q-25.5 -14 -21.5 -40 q0 -27 0 -51 q5 -45 19 -86 q4 -21 -12 -30 q-29 -9 -51 4 q-16 -4 -33 -6 q-19 8 -6 22 q43 14 57 25 q-4 46 -10 89 q2 55 6 80 q-28 -6 -55 -25.5 q-27 -19.5 -53 -3.5 q-18 14 0 35 q36 8 71 32 q14 -9 29 2 q30 27 63 56 l31 40 q-35 7 -64.5 -14.5 q-29.5 -21.5 -60.5 -9.5 l-4 -7 q-34 -5 -63 -28 q-29 -23 -62 -14 l0 20 q107 60 198 141 l29 29 l12 4 l9 -6 ZM272 345 q-4 2 -17 -4 q-25 -28 -25 -35 q40 -9 76 9 l-9 11 l-25 19 ZM699 83 q49 -11 80.5 -52 q31.5 -41 76.5 -61 q4 -12 0 -25 q-7 4 -15 4 l-1 -13 l-19 4 l-12 16 l-27 16 q0 16 -13.5 24 q-13.5 8 -18.5 22 q-25 15 -49 31 q-27 -4 -47 -2 l-2 14 q27 17 47 22 ZM284 63 q2 -5 4 -10 q-25 -41 -14 -83 l24 -6 q12 -8 4 -19 q-27 -12 -52 -5 q-17 11 -11 32 q6 18 5 40.5 q-1 22.5 17 40.5 l17 12 l6 -2 Z" /><glyph glyph-name="" unicode="&#x8017;" d="M313 688 q9 0 18 -7 q4 -7 8 -58 q-4 -8 -4 -51 q49 11 105 28 q20 -20 0 -42 q-25 -33 -64 -72 q4 -10 10 -21 q27 7 47 -14 q12 -45 -18 -78 l-9 -5 q-24 -60 -67 -100 l-15 -13 q-9 -12 -2 -22 q7 -10 13 -16 l-20 -15 l0 -24 q87 -95 216 -104 l6 38 q-12 4 -22.5 -6 q-10.5 -10 -16.5 6 q-14 17 2 29 l37 10 q8 25 19 77 q3 46 0 50 q-29 -19 -80 -55 l-9 -15 l-14 -2 q-18 15 -6 35 l116 67 l13 39 l10 2 l13 -20 q34 12 46 12 q18 -12 9 -31 q-17 -36 -55 -102 q-13 -18 0 -30 q28 -6 57.5 29.5 q29.5 35.5 60.5 11.5 l2 -17 l-20 -14 l-11 -25 l-7 -4 l-15 19 q-51 -15 -90 -47 q-22 -31 -11 -66 q42 -7 103 -14 l6 -6 l-4 -5 q-29 0 -35 5 l-2 -5 q-26 3 -59 3 q-15 -7 -5.5 -14 q9.5 -7 7.5 -13 q29 -16 63 -12 q92 12 122 12 q72 15 132 27 l9 112 q9 -18 15 -36 q6 -59 14 -105 q-8 -6 -16 -12 q-15 2 -57 6 q-49 -20 -100 -18 l-3 -4 l-30 4 l-2 -4 q-44 -6 -85.5 -14 q-41.5 -8 -78.5 12 q-26 22 -23 61 q-32 8 -101 24 q-31 13 -77 33 l-5 5 q-27 15 -34 15 q0 -91 -2 -182 l-17 -4 l-6 -7 q-6 11 -14 67 q17 69 8 151 q-49 43 -90 -16 q-41 -59 -84 -64 q0 -11 -6 -18 l-28 -4 q-11 13 2 27 q69 48 114 79 q3 16 8 43 q15 14 29 29 l14 2 l16 -17 l7 -2 q10 17 5 47 q9 12 19 25 q0 57 0 115 q-4 1 -6 3 q-41 -30 -88 -45 q-12 9 -1 22 q46 38 99 78 q2 23 6 45 q-4 8 -4 27 q-41 -9 -79 -23 q-15 0 -27 0 q-8 14 5 25 q54 0 101 31 q17 61 6 123 q2 5 7 9 ZM420 570 q-7 2 -59 -14 q-8 -7 -16 -13 q6 -18 21 -39 q32 33 54 66 ZM692 559 q12 -12 -0.5 -24 q-12.5 -12 -7.5 -24 l-12 -4 q-78 -78 -100 -105 q-23 -12 -37.5 -34.5 q-14.5 -22.5 -36.5 -24.5 l4 15 l5 2 q34 51 84 93.5 q50 42.5 79 104.5 l11 5 l11 -4 ZM329 536 q0 -52 4 -56 l14 8 q6 10 -5 21 q-11 11 -7 27 l-6 0 ZM343 467 q0 -5 -10.5 -11.5 q-10.5 -6.5 2.5 -8.5 l31 11 l0 11 l-13 0 l-10 -2 ZM400 440 q-6 -20 11 -29 q9 9 2 26 l-13 3 ZM378 437 q-37 -13 -54 -22 q0 -96 5 -100 l40 38 q31 37 11 82 l-2 2 ZM631 313 q-4 2 -31 -9 q-4 -7 0 -41 l7 0 l24 50 ZM437 83 l0 -5 l3 4 l-3 1 Z" /><glyph glyph-name="" unicode="&#x820d;" d="M413 684 q20 -14 5 -34 q17 -11 68 -45 l14 -15 q117 -76 237 -150 q96 -29 116 -40 l5 -7 q-41 -5 -77 10 q-36 15 -73 26 q-112 67 -199 120 q-49 34 -98 72 q-15 -14 -25 0 q-143 -174 -223 -268 l-16 -2 q-15 18 7 35 l11 8 q56 64 115 129 q59 65 102 143 l20 18 l11 0 ZM511 488 q28 -16 1 -43 q-22 -27 -54 -67 q6 -23 9 -63 q2 -5 7 -7 q112 13 241 29 q80 10 151 -15 l0 -14 q-42 -34 -92 -27 q-2 5 6 13 l20 10 l0 6 q-18 3 -36 5 q-85 -9 -141 -11 l-4 -4 q-14 0 -147 -19 q-25 -30 -17.5 -61.5 q7.5 -31.5 -5.5 -60.5 q-9 -5 -18 -5 q-4 5 -7 11 q5 25 9 110 q-11 0 -69 -5 q-66 -17 -127 -33 l-2 -4 q-12 0 -25.5 -9 q-13.5 -9 -19.5 2 q-12 15 -2 33 q40 6 77 31 q50 27 141 76 l0 5 l-13 0 l-7 19 q18 16 31 21 l16 -17 l7 0 q-5 19 27.5 32.5 q32.5 13.5 18.5 37.5 q-75 -21 -131 -40 q-20 -2 -40 -2 l-5 18 l19 13 l4 -4 q6 -2 57 11 q74 22 98 30 l23 -2 ZM427 353 q-27 -4 -47 -21 q-20 -17 -45 -17 l-2 -5 l-29 -16 l0 -8 q25 6 127 16 q16 6 3.5 21.5 q-12.5 15.5 -5.5 27.5 l-2 2 ZM298 186 l26 -27 q-20 -10 -18 -28 q15 -51 35 -102 q43 -49 99 -75 q16 -11 3 -23 q-6 0 -12 0 q-11 9 -71 39 q-52 42 -68 106 q-24 56 -4 110 l10 0 ZM635 159 q8 0 22 -10 q6 -14 -5 -21.5 q-11 -7.5 -15 -13.5 l-47 -32 q22 -6 39 -17 l-4 -12 l-6 5 l-2 -5 q-39 7 -72.5 -11 q-33.5 -18 -68.5 -18 l-9 -8 q-20 -5 -43 -5 q-7 13 7 28 q41 17 84.5 31.5 q43.5 14.5 83.5 45.5 l0 6 q-87 -15 -139 -24 l-7 -8 l-18 4 l-24 -31 l-13 -2 l-4 13 l17 9 l20 25 q55 17 204 51 Z" /><glyph glyph-name="" unicode="&#x884c;" d="M570 668 q30 -9 52.5 -37.5 q22.5 -28.5 53.5 -42.5 q14 -16 26.5 -36.5 q12.5 -20.5 1.5 -42.5 q-12 -11 -18 3 q11 13 -0.5 27.5 q-11.5 14.5 -17.5 25.5 q-60 47 -90 70 l-15 -14 q-5 4 -9 10 q5 19 16 37 ZM625 612 l0 -5 l2 3 l-2 2 ZM650 592 l0 -6 l2 4 l-2 2 ZM294 558 q23 -17 8 -38 q-43 -58 -96 -107 l6 -7 q25 7 53.5 15 q28.5 8 58.5 1 q44 -36 3 -77 q-41 -41 -57 -71 l22 -13 q27 -57 8 -116 q19 -14 15 -37 q-15 -30 -29 -73 q-12 4 -17.5 -4.5 q-5.5 -8.5 -11.5 -8.5 q-12 11 -10 27 q14 63 31 150 q-6 20 -15 27 q-8 -5 -13 -5 l-3 -4 l-10 -7 l-9 -11 q-24 -9 -39 -28.5 q-15 -19.5 -40 -11.5 q-8 20 10 41 l45 33 q41 48 84 100 q25 25 29 60 q-13 15 -28 9 q-15 -6 -28 -2 l-4 -6 q-20 -6 -40 -10 l-2 -4 l-45 -9 l-5 5 l-8 2 q-3 18 15 37 q34 34 96 104 q0 24 20 40 l6 -1 ZM292 512 l0 -5 l2 4 l-2 1 ZM230 465 l0 -5 l3 4 l-3 1 ZM800 445 q13 -5 29 -1.5 q16 3.5 29 -10.5 l0 -16 q-13 -9 -27 -11 l-7 18 q-11 5 -38 5 l-4 -7 q-16 7 -29.5 0 q-13.5 -7 -26.5 -2 l-3 4 l-2 -4 q-13 -2 -42 -5 l-5 -7 q14 -15 36 -53 q-2 -6 -4 -10 q13 -14 12 -33.5 q-1 -19.5 1 -36.5 l4 -1 q2 -113 6 -214 q-4 -21 -8 -38 q4 -4 4 -34 q-2 -23 -6 -34 q-17 6 -24 -7 q-9 4 -54 17 l-2 3 q-6 -2 -10 -3 q-66 8 -149 18 q45 6 98 10 q55 7 108 -8 q9 45 15 94 q-4 63 -13 230 l4 2 q-11 25 -22 58 l-13 8 q-14 17 4 32 q-40 -2 -75 -4 q-32 -11 -74 -20 l-1 -4 l-46 -20 l-1 4 l-2 -4 l-9 4 l0 14 l27 24 l6 -12 q23 10 47 16 l6 7 q133 16 261 32 ZM726 435 l0 -6 l3 4 l-3 2 ZM849 429 l0 -7 l2 5 l-2 2 ZM617 415 l0 -7 l2 5 l-2 2 ZM317 404 l0 -6 l2 4 l-2 2 ZM543 404 l0 -6 l2 4 l-2 2 ZM721 100 l0 -6 l2 4 l-2 2 ZM525 -18 l0 -6 l2 4 l-2 2 Z" /><glyph glyph-name="" unicode="&#x8981;" d="M798 655 q19 -20 -2.5 -33.5 q-21.5 -13.5 -27.5 -27.5 q-17 0 -27 -11 q-10 -11 -22 -5 l18 22 q6 2 37 23 l0 16 l-16 0 l-3 -4 q-60 -10 -114 -16 l-6 -7 q-23 -5 -28 -5 l-2 -5 q-64 -14 -111 -22 l-2 -4 q-52 -13 -72 -18 q-3 -27 -9 -66 q4 -20 7 -39 q29 3 66 12 q14 11 28 21 l8 12 q11 6 19 -6 l4 -12 q29 -4 59.5 -1 q30.5 3 60.5 -10 q18 -16 2.5 -31.5 q-15.5 -15.5 -20.5 -26.5 q-43 -33 -89 -68 q-4 -19 -7 -35 q-40 -49 -63 -78 q-24 -36 -39 -63 q35 5 60 11 l4 -4 q12 9 29.5 7 q17.5 -2 35.5 9 q161 6 259 12 q39 2 72 21 q0 -13 15.5 -20 q15.5 -7 0.5 -20 q-21 -11 -39 -16 l-8 9 l-25 2 l-4 -4 q-71 -2 -152 -4 l-5 4 l-2 -4 q-47 2 -83 -19 q0 -12 -5 -22 l-12 -7 q-14 -20 -38.5 -36.5 q-24.5 -16.5 -20.5 -40.5 q14 -5 73 -16 q70 -25 119 -39 q12 -18 -6 -30 l-20 -4 l-9 11 l4 3 q-47 18 -94 33 q-47 15 -94 24 q-53 -25 -80 -35 l-2 -4 q-18 -6 -35 -14.5 q-17 -8.5 -36 -1.5 l-2 -5 q-49 3 -77 7 l-7 6 q-10 0 -35 14 q-22 14 -37 34.5 q-15 20.5 -26 45.5 q-24 18 -55 9 q-6 11 -10 27 q4 4 8 10 q53 7 142 23 q56 2 114 4 q14 7 36 14 q27 31 56 64 q30 50 56 92 q0 5 0 14 q-24 0 -41.5 -14.5 q-17.5 -14.5 -35.5 -19.5 l-24 -25 q-13 -2 -25 -4 q-13 29 20 42 l18 12 q38 38 62 84 q-4 2 -21 -10 l-22 -28 q-16 -8 -28 -8 q0 9 -9.5 18.5 q-9.5 9.5 -1.5 23.5 l-4 2 l-4 11 q-14 -4 -30 -15 l-2 -6 l-9 0 q-4 17 13 33 l28 13 q-6 48 -10 60 q4 37 0 45 q-13 0 -25 0 q-16 -6 -35 -12 q-61 -13 -96 -17 l-5 -5 q-10 0 -21 -4 l-4 4 l-4 -4 q-24 0 -41 -7 q-63 0 -72 4 l-7 8 l-13 11 l4 2 l0 12 l27 4 l13 -16 q30 -13 61 -3.5 q31 9.5 62 9.5 l3 5 q114 23 274 60 q79 23 169 47 q53 9 108 16 l14 -4 ZM612 619 l0 -7 l3 5 l-3 2 ZM90 507 l0 -7 l2 4 l-2 3 ZM228 490 q5 0 29 -10 q4 -4 8 -16 q-12 -19 -6 -42 q21 -71 33 -109 q10 -16 41 -50 q8 12 20 5 l0 -15 q-20 -14 -43 -2 q-18 21 -40 59 q-5 16 -9 35 q-8 8 -11 16 q-15 56 -22 99 q-3 2 -5 5 q0 15 5 25 ZM583 458 q-7 0 -40 -2 q-14 -21 -36 -63 l-13 -11 q-4 -11 -6 -24 q43 -13 75.5 14.5 q32.5 27.5 63.5 51.5 l18 23 q-12 15 -30.5 8.5 q-18.5 -6.5 -31.5 2.5 ZM462 437 q-22 3 -35 -10 q2 -12 -4 -19.5 q-6 -7.5 6 -13.5 l16 0 q8 21 17 43 ZM582 373 l0 -5 l1 3 l-1 2 ZM565 358 l0 -7 l2 4 l-2 3 ZM498 335 l0 -6 l2 4 l-2 2 ZM300 272 l0 -7 l2 5 l-2 2 ZM480 253 l0 -6 l2 4 l-2 2 ZM643 183 l0 -5 l2 3 l-2 2 ZM445 181 l0 -5 l2 3 l-2 2 ZM770 178 l0 -6 l2 4 l-2 2 ZM888 178 l0 -6 l3 4 l-3 2 ZM531 159 q-12 -5 -22 -5 l-2 -5 q-45 -6 -85 -18 q-7 -17 3 -28 q10 -11 15 -21 q20 -10 46 -22 q6 1 12 3 q27 29 35 45 l8 6 q17 18 17 43 l-25 0 l-2 2 ZM390 125 q-24 0 -57 -3 l-4 -3 q-37 -7 -74.5 -7 q-37.5 0 -68.5 -18 l-8 -14 l8 -6 q18 -39 51 -66 q24 -24 60 -22 l3 4 l41 -4 l4 4 q28 6 58 14 q30 8 57 31 l2 8 l-29 15 l-11 14 l-7 4 q-25 43 -25 49 Z" /><glyph glyph-name="" unicode="&#x8d44;" d="M545 686 l9 -14 l-7 -4 q-16 -45 -35 -98 q2 -5 7 -9 q6 -3 15 3 q9 6 20 -1 l2 4 q116 19 197 35 q25 6 47 -3 q19 -17 0 -36 q-42 -32 -90 -44 l-4 -7 q-9 -1 -30 -18 q-6 2 -13 4 l5 9 q75 47 108 67 l-4 6 q-24 0 -31 -2 l-2 4 l-4 -4 q-69 -13 -147 -22 l-5 -4 l-18 0 l-2 -5 q-49 -6 -91 -27 q-5 9 -8 21 l14 13 q10 18 22 38 q7 29 16 74 q11 10 21 20 l8 0 ZM261 578 q19 -4 41 -17 q20 -28 39 -50 q4 -9 0 -17 l-10 -2 q-5 6 -47 49 l-16 13 q-5 7 -13 20 l6 4 ZM619 541 q24 -18 5 -38.5 q-19 -20.5 -25 -35.5 l-9 -5 l-12 -13 l-8 -6 l-16 -16 q-17 -12 -23 -12 l-17 -17 q-14 -8 -50 -30 l-13 -13 q14 -8 2 -20 q-6 0 -18 -11 q-13 -46 -18 -52 q-2 -22 -9 -68 q3 -4 5 -8 l11 10 q13 17 58 62 q38 32 88 49 q53 14 93 -20 q9 -32 0 -64 q-8 -43 -38 -70 q-8 -4 -26 -4 l-3 -4 l-31 0 q-61 -112 -98 -185 q-7 -8 -16 -16 l-8 0 l-6 -9 l-24 0 q-19 9 -13 24 q6 15 18 25 q6 0 14 6 q8 6 19 0 q11 12 25 31 q28 56 44 94 q17 45 23 96 l13 2 q20 -6 11.5 -24 q-8.5 -18 14.5 -21 q12 -11 20 0.5 q8 11.5 21 17.5 q8 23 24 82 q-10 8 -18 19 l-4 -5 q-8 5 -53 5 q-14 -7 -29 -9 q-43 -29 -53 -33 q-4 -8 -41 -55 q-27 -53 -45 -93 q-6 0 -20 -9 q-8 14 -13 24 q19 121 37 239 q76 29 139 88 q33 31 58 70 q0 6 0 14 l10 8 l4 0 ZM437 464 q-100 -64 -261 -160 q-21 -6 -33 6 q-11 11 2 23 q9 6 16 12 q9 -8 20 2 l11 11 l14 6 l9 -9 q111 58 222 117 l0 -8 ZM679 445 q9 -5 47 -8 q62 -20 107 -43 l8 -8 l23 -15 l4 -10 l-12 -1 l-3 -9 l-12 0 l-3 -6 l-11 0 q-6 24 -16 39 l-9 0 l-9 10 q-32 12 -72 26 q-47 7 -84 15 l4 5 l38 5 ZM681 45 q14 -2 50 -16 q33 -33 45 -49 l14 -13 q23 -13 8 -29 l-10 0 l-4 -7 l-10 -2 q-10 16 -24 43 q-24 22 -27 30 q-19 9 -35 19 q-16 10 -34 6 l0 6 l27 12 Z" /><glyph glyph-name="" unicode="&#x8f7d;" d="M411 725 q7 -12 22 -28 q18 -45 27 -85 q-25 -18 -54 -22 q-6 -61 -10 -102 l-3 -2 q0 -28 5 -43 q10 -3 22 -3 q84 20 152 32 q4 2 8 6 q-4 18 -13 76 q7 46 9 87 q-9 31 -13 47 q2 9 4 16 q11 17 27 6 q-2 -11 -6 -24 q4 -18 8 -34 q0 -94 3 -166 q6 -4 22 -4 q112 27 235 54 q18 -24 -7 -36 q-8 0 -20 11 q-61 -13 -79 -13 q-7 -4 -13 -8 q-6 2 -11 4 q-47 -10 -105 -22 q-9 -7 -16 -10 l7 -4 q9 -38 31 -141 q4 -4 47 -107 l11 -6 q22 33 40 61 q20 48 45 113 q4 4 9 8 l7 -6 q11 -41 -16 -72 l-10 -8 q-15 -35 -18 -49 q-25 -34 -52 -81 q13 -31 47 -110 q27 -46 60 -106 l8 0 q8 32 26 85 q19 -35 2.5 -67 q-16.5 -32 1.5 -63 l-7 8 l-9 -15 q-13 -11 -20 -4 q-45 80 -84 145 l4 2 l-4 2 q-8 16 -39 92 l-13 2 q-9 -9 -22 -25 q-5 0 -18 -6 l-8 -14 l-14 -13 l-27 -32 l-12 -4 q12 16 47 57 l4 3 q23 32 50 65 q-44 103 -62 159 l-5 2 q-4 61 -24 120 q-16 14 -29 3 l-1 4 l-2 -4 l-20 0 l-5 -5 q-31 -11 -61 -13.5 q-30 -2.5 -55 -15.5 l3 -5 q13 -19 34.5 -24 q21.5 -5 33.5 -25 l0 -7 q-8 -6 -49 -20 q-22 -6 -51 -8 q-17 -11 -33 -14 q-12 -27 -22 -51 q-9 -62 -9 -90 q7 0 15 0 q27 24 63 41 l0 14 l4 2 q0 30 4 43 q9 14 23 2 q2 -21 9 -41 q-3 -33 -13 -60 l4 -1 q4 -11 -5 -21 q-9 -10 9 -14 q32 16 43 20 q45 33 89 63 q-18 -9 -15 -26 l-13 0 l-6 -12 q-57 -41 -90 -61 l-6 -11 l-13 -9 q7 -54 11 -78 l-4 -5 q-14 -22 -38 -20 q0 18 11 39 q-10 20 -2 44 q-4 7 -6 13 q-49 -24 -86 -44 l-26 -32 l4 -4 q-27 -20 -55 -4 q-12 13 -3 29 q42 6 77.5 30.5 q35.5 24.5 76.5 36.5 l2 4 l14 9 q0 6 -2 16 l4 2 q0 11 -4 22 q4 7 6 18 q-4 3 -6 7 q-29 -7 -47 -30 q-18 -23 -47 -17 q-4 4 -6 8 q12 106 17 149 q-27 -10 -52 -3 l-2 18 q37 0 70 22 q16 47 22 74 q-22 0 -40 -3 l-5 -4 q-87 -11 -179 -24 l-2 13 q8 5 16 13 q63 7 230 27 q3 7 -7 29 q5 38 12 108 q-25 12 -45 -16.5 q-20 -28.5 -43 -12.5 q-9 13 7 22 q38 19 81 39 q-7 61 10 124 l23 -1 ZM413 688 q-11 -16 -14 -38.5 q-3 -22.5 7 -37.5 l21 7 q8 33 -7 65 l-7 4 ZM723 681 q8 -20 22 -66 q23 -37 41 -61 q2 -9 4 -17 l-8 4 l-10 17 l-8 1 q-21 29 -51 82 q-14 20 -5 43 l15 -3 ZM437 663 l0 -6 l3 4 l-3 2 ZM755 578 l0 -6 l3 4 l-3 2 ZM400 394 q-18 4 -29 -10 l-13 -37 q6 -2 73 17 q6 5 -4 11.5 q-10 6.5 -10 14.5 l-17 4 ZM406 339 l0 -6 l2 4 l-2 2 ZM668 250 l0 -7 l2 4 l-2 3 ZM422 100 l0 -6 l2 4 l-2 2 Z" /><glyph glyph-name="" unicode="&#x8fc7;" d="M695 576 q13 -11 11 -27 q-9 -65 -14 -114 q3 -6 7 -13 q18 -5 39.5 11 q21.5 16 39.5 4 q12 -13 -4 -20 q-37 1 -70 -15 q-12 -12 -7 -31 q4 -50 7.5 -99 q3.5 -49 18.5 -96 q0 -62 -4 -74 l-17 -2 l-1 -6 q-6 0 -11 0 q-73 41 -98 57 l0 10 q53 4 94 -26 q4 4 4 67 q-18 79 -14 166 q-4 12 -8 20 q-98 -39 -170 -71 q13 -45 47 -80 q9 -16 0 -25 q-45 39 -71 90 q-14 -5 -39 -10 q-2 10 2 18 l23 12 q2 7 -9 27 l-11 6 q-16 27 9 41 l9 -3 l26 -56 q59 23 184 76 q4 40 16 150 q4 7 8 13 l3 0 ZM280 543 q1 -6 4 -12 q-29 -123 -41 -192 q7 -61 12 -127 q13 -45 25 -90 q98 -26 204 -53 q57 -6 116 -9 q125 -2 197 -4 q34 -3 69 -11 q-174 -5 -272 -6 q-47 1 -94 6 q-96 15 -187 45 q-15 -3 -27 -5 q4 -11 4 -34 l-18 -6 q-21 13 -3.5 24 q17.5 11 -5.5 23 q-24 4 -49.5 3 q-25.5 -1 -46.5 -8 q5 -9 16 -16.5 q11 -7.5 11 -19.5 l-8 -2 q-19 12 -36.5 36.5 q-17.5 24.5 1.5 49.5 q19 2 39 -10 q33 0 67 0 q-12 58 -27 120 q-2 57 -4 110 q15 69 25 145 q8 29 21 47 l8 -4 Z" /><glyph glyph-name="" unicode="&#x8fd8;" d="M688 594 q13 -18 0.5 -31.5 q-12.5 -13.5 -18.5 -25.5 l-7 -1 q-4 -11 -46 -60 l-15 -12 q-24 -31 -66 -84 q1 -4 3 -7 q17 -7 37 -22 q16 -57 24 -86 q5 -77 -6 -149 l-12 -4 q-6 8 -12 17 q2 67 0 83 q4 5 4 41 q-9 35 -20 73 q-17 21 -40.5 8 q-23.5 -13 -35.5 -24 q-6 -6 -67 -69 q-13 -4 -21 -4 q-10 35 21 60 q73 56 93 72 q32 51 74.5 96.5 q42.5 45.5 80.5 93.5 q0 11 0 21 q-52 -15 -128 -35 q-11 0 -19 0 l-3 -4 q-78 -21 -91 -29 q-24 -3 -47 -5 q-2 12 2 20 l27 0 l4 4 q125 32 264 69 l20 -6 ZM275 582 q3 0 15 -8 q-12 -112 -33 -304 q4 -44 12.5 -86.5 q8.5 -42.5 -1.5 -85.5 q4 -4 7 -8 q103 -14 262 -37 q284 -17 386 -20 l0 -4 q-121 -5 -219 0 q-3 -5 -7 -7 q-45 2 -74 0 q-163 17 -308 38 q-21 -2 -41 -4 l0 -21 q-19 -21 -39 -8 l-5 16 l15 8 l-4 9 l-76 0 q9 -11 -4 -17 l-2 4 l-4 -4 q-30 -10 -53 8 q-24 25 -2 49 q20 2 41 4 q53 -19 106 -12 q3 16 10 51 q-12 74 -18 151 q11 51 18 88 q6 104 11 157 l-9 0 q-12 13 -2 26 l18 17 ZM741 315 q10 0 31 -13 q14 -32 25 -59 q1 -51 0 -69 l-11 5 q-6 36 -14 68 q-11 18 -21 37 l-28 0 l6 26 l12 5 ZM154 61 l0 -10 l3 9 l-3 1 Z" /><glyph glyph-name="" unicode="&#x91c7;" d="M659 666 q15 2 25 -11 l0 -18 q-16 -10 -30.5 -22.5 q-14.5 -12.5 -32.5 -2.5 l6 13 l8 2 l4 8 q-8 2 -57 -10 q-122 -45 -216 -84 q27 -25 -2 -49.5 q-29 -24.5 2 -44.5 q42 -7 81 20 q73 53 111 80 q18 -11 12 -35 q-37 -67 -59 -108 q16 -8 25 -14 q7 -12 18 -24 q4 -23 0 -31 q-25 -27 -56 -40.5 q-31 -13.5 -55 -31.5 q-3 -10 -3 -77 l9 -8 q23 -29 23 -35 l10 -6 l0 -8 q6 -2 41 -22 l2 -5 l24 -12 q34 -34 37 -39 l29 -27 l2 -4 q12 -2 20 -14 q8 -12 26 -6 l16 -14 q23 -4 162 -6 q6 -4 12 -6 q-44 -23 -95 -18 q-50 -2 -103 0 l-18 18 q-61 40 -110 95 q-41 21 -63 33 l-24 23 q-11 -25 -7 -51 l-4 -2 q-2 -29 -5 -43 q3 -7 7 -13 q2 -38 4 -56 q-8 0 -29 -11 q-13 47 -8 100 q4 27 8 96 q-24 4 -38.5 -15.5 q-14.5 -19.5 -28.5 -27.5 q-4 -10 -61 -80 q-21 -28 -53 -36 q-25 -12 -44 0 q-7 26 15 45 q37 29 69 47 l3 5 l36 27 q39 39 94 100 q10 16 6 33 q-44 -17 -77 -48.5 q-33 -31.5 -76 -43.5 q-21 30 10 54.5 q31 24.5 49 49.5 l127 98 l28 49 l19 11 q35 51 53 85 q-39 -20 -75 -49 q-51 -32 -109 -31 q-16 -36 -47 -63 q-25 -22 -45 -2 q-20 31 -22 69 q-2 38 -9 74 q-20 0 -60 4 q-25 14 -11 37 q22 4 53 8 l5 4 l4 -6 q-15 -7 -29 -10 l-2 -6 q12 -13 31 -2 l2 -5 q5 9 16 23 l2 -4 l6 4 l6 -6 q6 -4 12 -6 q141 49 358 128 q18 2 36 7 ZM347 537 q-34 -12 -53 -23 q4 -3 4 -14 q-10 -24 -17 -10 q-7 14 -18 6 q-2 -31 -2 -59 q4 -24 14 -57 q9 -14 23 0 l2 8 l10 8 q21 22 29 35 q-18 25 -10 57 q26 21 20 48 l-2 1 ZM509 373 q-15 7 -21 -4 q-35 -65 -35 -71 q45 21 74 41 q12 6 2.5 13.5 q-9.5 7.5 -9.5 15.5 l-11 5 ZM420 310 q-3 3 -49 -30 q-28 -25 -54 -50 l0 -9 q22 14 91 51 q7 9 12 38 ZM245 33 q-4 2 -26 -15 l-2 -7 l9 0 q17 16 19 22 Z" /><glyph glyph-name="" unicode="&#x95ee;" d="M333 629 q18 4 31 -10 q-9 -20 -23 -37 q-2 -15 -2 -26 q12 -33 27 -54 q12 -2 27 -4 q1 -8 -5 -20 q-27 -13 -45 10 q-14 28 -28 57 q-9 45 18 84 ZM661 625 q80 -6 132 -10 q4 -8 7 -15 q-5 -26 -14 -120 q-6 -111 -10 -176 q4 -26 10 -65 q-2 -9 -4 -14 q4 -31 13 -96 q2 -90 5 -129 q-10 -16 -26 -12 q-19 4 -35 11 q-42 3 -118 15 q-9 4 -16 8 l3 5 q105 2 145 4 q2 18 5 112 q-17 100 -15 204 q12 43 9.5 89 q-2.5 46 8.5 93 q-3 49 -10 61 q-41 12 -81 10 q-105 -12 -182 -20 l0 8 q19 11 37 22 q87 9 136 15 ZM215 472 q4 0 20 -12 q8 -33 4 -66.5 q-4 -33.5 12 -64.5 q2 -49 -16 -92 q10 -20 2 -41 q4 -18 13 -35 q-5 -36 -15 -69 l-10 -2 l-4 -8 q-13 0 -21 3 q-1 35 3.5 71 q4.5 36 -1.5 72 q4 9 21 91 q-6 71 -13 148 q2 2 5 5 ZM411 420 q20 -56 29 -120 q27 -65 38 -77 l12 7 q-4 13 0 29 l59 45 q-8 18 26.5 37 q34.5 19 14.5 37 q-25 -10 -49 -5 l-12 -12 l-29 -22 q-2 -6 -10 -18 l-10 0 q-6 16 -6 39 q12 8 71 30 q38 14 82 8 q14 -10 8 -29 q-25 -24 -39 -47 q16 -12 31.5 8.5 q15.5 20.5 33.5 8.5 l-9 -17 q-44 -18 -81.5 -45 q-37.5 -27 -72.5 -52 q9 -17 -2 -29 q-24 -24 -40 6 q-32 51 -45 111 q-9 38 -15 69 q0 14 0 31 l15 7 Z" /><glyph glyph-name="" unicode="&#x96c6;" d="M567 710 q7 0 15 -4 l10 -22 l35 -29 q4 -10 -4 -14 l-43 -24 q-6 -25 -10 -37 q-14 -60 -11 -113 q35 19 74 21 q26 -30 -7.5 -55 q-33.5 -25 -33.5 -49 q13 0 33 -8 q22 -33 -2 -61 l-53 -41 q-3 -13 -9 -24 l25 -5 l8 -10 q13 0 35 2 l10 -14 q-27 -24 -59 -27 q-4 -8 -21 -51 q0 -112 4 -123 q-5 -62 -9 -109 q-45 -6 -94 -2 q-25 9 -47 16 l-2 11 q9 3 40 0 q39 5 63 13 q0 9 9 53 q2 135 4 168 q-60 -23 -69 -23 l-5 -6 q-55 -18 -105.5 -43.5 q-50.5 -25.5 -106.5 -19.5 q-11 18 9 28 q28 14 63 39 l-5 2 q-20 29 -14 70 q4 34 4 85 q21 152 37 250 l-31 -23 q-61 -62 -98 -104 q-10 -5 -27 -7 q0 9 0 20 q54 76 82 170 q7 60 13 74 q6 6 10 -2 q4 -8 13 -8 q1 -6 3 -11 q-6 -8 -16 -61 q-19 -50 -25 -57 q-9 -16 -2 -29 q37 31 111 86 q3 -2 8 -3 q0 -11 2 -21 q-29 -53 -35 -111 q-2 -69 -15 -137.5 q-13 -68.5 -2 -135.5 l9 -2 q6 -9 8 -29 q77 52 161 117 q57 1 98 49 q8 12 -2 24 q-30 -6 -51 -29 q-8 0 -29 -7 q-11 43 -24 91 q2 12 4 25 l20 14 q5 11 9 20 q7 60 12 116 l-57 -52 q-12 -24 -22 -45 l-9 0 q0 14 -6.5 29.5 q-6.5 15.5 4.5 31.5 q51 31 96 76 q9 18 2.5 43.5 q-6.5 25.5 17.5 43.5 ZM600 456 q-33 -23 -51 -39 l-4 -35 l7 0 q40 51 50 71 l-2 3 ZM559 250 q-57 -24 -112 -46 q-43 -32 -116 -77 l4 -5 q105 39 206 84 l22 39 l-4 5 ZM770 78 q43 -6 81 -31 l7 -7 q36 -18 89 -54 l2 -16 q-16 -14 -20 -16 q-25 16 -55 32 l-6 6 q-6 0 -19 8 l0 11 q-40 25 -63 36 q-28 -2 -47 0 l-4 11 l35 20 ZM92 49 q16 -13 12 -31 l-17 -10 q0 -16 0 -30 q0 -16 13.5 -28 q13.5 -12 6.5 -25 l-13 -3 q-16 21 -33 42 q-10 47 17 85 l14 0 Z" /><glyph glyph-name="" unicode="&#x9700;" d="M679 741 l2 -18 q-24 -19 -31 -19 l-17 19 q-137 -35 -255 -66 q-31 -5 -57 6 l0 13 q37 8 79 8 q116 37 241 59 l38 -2 ZM492 670 q4 0 19 -11 l5 -34 q66 8 165 22 q34 -4 69 -6 q40 -8 94 -20 q9 -21 -9 -33 q-29 0 -56.5 -14.5 q-27.5 -14.5 -52.5 -1.5 l0 11 q7 3 29 17 q-16 19 -39.5 15.5 q-23.5 -3.5 -41.5 9.5 q-64 -6 -118 -13 l-2 -4 l-34 -8 q5 -69 13 -147 q-13 0 -18.5 -11 q-5.5 -11 -14.5 1 q0 94 4 106 q-6 21 -10 41 l-36 0 l-2 -4 q-41 -12 -76 -23 l-2 -4 l-20 -3 l-3 14 q21 6 35 16 q61 16 96 24 q2 15 0 56 l6 4 ZM186 645 q-10 -46 0 -93 q6 -32 31 -48 l22 -2 l6 -14 q-39 -14 -64 21 q-26 38 -24 87 q-3 29 17 49 l12 0 ZM594 605 q11 -17 21 -33 q-7 -20 6 -33 l8 4 q2 15 8 39 q24 20 44 -4 q3 -20 1.5 -43.5 q-1.5 -23.5 -14.5 -36.5 q-18 6 -9 25.5 q9 19.5 -4 32.5 q-18 -13 -15 -31 q3 -18 -9 -31 q-8 0 -13.5 -8 q-5.5 -8 -10.5 4 q-27 51 -31 110 l10 7 l8 -2 ZM429 586 l0 -6 l2 3 l-2 3 ZM394 531 q6 -17 21.5 -33 q15.5 -16 2.5 -34 l-14 8 l-18 26 l-10 0 q6 -45 -29 -65 q-12 -2 -25 2 q-9 39 -14 67 l-4 2 l0 21 q11 12 22 4 q7 -29 7 -45 q4 -8 12 -19 q4 4 10 11 q-2 6 -2 12 q15 26 25 51 l16 -8 ZM809 451 q12 -8 8 -24 q-20 -21 -47 -19 l-9 9 l-10 0 l-3 12 q-115 -9 -166 -12 q-23 -4 -80 -17 q12 -20 9 -45 q-4 -24 -25 -36 q-10 18 2 41 q-4 11 -10 34 q-60 -8 -127 -18 l-4 -5 q-106 -13 -188 -20 q-12 15 8 25 q83 0 166 12 q176 41 355 59 q86 0 121 4 ZM713 321 q6 -19 20 -58 q0 -12 0 -22 q-27 -100 -57 -223 q-13 0 -26 -7 q-13 13 -27 28 l-27 14 q-10 10 -10 16 l-6 3 l-4 18 q41 -5 76 -30 q2 1 5 3 q13 53 22 98 l5 2 q6 37 22 87 q-4 15 -16 52 q-36 -5 -71.5 -10.5 q-35.5 -5.5 -64.5 -17.5 q-2 -164 -2 -390 q-5 -6 -9 -10 q-2 6 -6 10 q-6 65 -4 128 l-4 2 q-2 94 -4 167 q-5 5 -6 9 q-25 -41 -61 -107 l-7 0 l-2 -3 l-18 -4 q-4 11 -9 24 q5 43 9 83 q-4 5 -4 21 l-5 2 q0 13 -7 24 q-13 -13 -25 -4 l0 11 l12 8 l9 8 q53 17 130 41 q76 12 163 30 l9 -3 ZM286 315 l0 -7 l6 -2 q5 -38 10 -112 q19 -45 35 -86 l4 -1 q0 -11 11.5 -18 q11.5 -7 0.5 -15 l-18 -2 l0 8 l-9 5 q-11 31 -29 69 q-17 56 -23 118 l6 2 q-19 18 -5 41 l11 0 ZM647 313 l-2 -5 l0 7 l2 -2 ZM567 297 l0 -7 l3 4 l-3 3 ZM514 272 l-2 -4 l-14 -7 l-2 4 q-8 -12 -18 -2 l-6 -10 l-32 -8 q0 -4 -3 -8 q6 -11 12 -18 q4 -60 9 -84 l9 8 q15 27 39.5 55 q24.5 28 20.5 67 l-11 5 l-2 2 ZM699 215 l0 -7 l2 4 l-2 3 ZM304 147 l0 -6 l2 4 l-2 2 ZM583 87 l-1 -4 l0 7 l1 -3 Z" /><glyph glyph-name="" unicode="&#x9891;" d="M315 745 q6 -8 11 -16 q-16 -30 -18 -61 q-6 -116 -10 -188 q6 -60 24 -114 q49 14 96 52 q31 29 62 58 q14 10 24 -2 l3 -12 q-83 -76 -121 -104 l-4 -9 l-18 -16 l-15 -20 l-23 -15 q-7 -26 -11.5 -52.5 q-4.5 -26.5 0.5 -51.5 l9 -2 l0 -9 l-5 -2 q-15 -14 -6.5 -31.5 q8.5 -17.5 8.5 -29.5 l-15 -4 l-2 -8 l-10 0 q-8 17 -14 53 q4 64 8 136 q-43 -25 -75 -60 q-32 -35 -72 -54 q-9 11 -10 25 q32 42 79 66 q47 24 87 61 q-7 36 -22 108 q-1 26 -3 55 q8 69 16 208 q9 20 16 42 l11 -3 ZM608 647 q4 0 21 -8 q12 -29 2 -59 q-12 -57 -34.5 -109.5 q-22.5 -52.5 -40.5 -102.5 q0 -8 0 -17 q5 4 103 89 q47 44 105 69 q16 -19 16 -44 q0 -57 -16 -110 q-27 -81 -85 -140 q-34 -32 -71 -50 q-25 -33 -50 -75 q-19 -34 -33 -66 q-13 -13 -25 -28 q-14 -8 -22 4 q33 87 87 178 q-7 41 17 77 l17 2 q22 -6 15 -25.5 q-7 -19.5 5 -29.5 l47 39 q18 20 63 90 q29 69 16 143 q-66 -37 -115.5 -91 q-49.5 -54 -102.5 -102 l-53 -58 q-14 -15 -27 -6 q-12 18 3 32 q15 14 22 32 l28 25 q54 107 92 223 q18 45 8 86 q-22 -7 -51 -15 l-4 -14 l-8 -3 q-28 29 -1 58 q47 0 72 6 ZM215 559 q2 0 10 -5 q-4 -34 -8 -42 q9 -108 16 -157 q12 11 20 11 q0 -23 -6 -35 q-17 -18 -37 -12 q-8 57 -14 124 q0 33 0 66 q4 11 19 50 ZM422 545 l0 -16 q-38 -2 -61 -35 l-16 -29 l-12 -3 q-12 3 -11.5 15.5 q0.5 12.5 -0.5 24.5 l16 12 l4 11 l65 31 l16 -11 ZM418 322 q9 0 22 -7 q3 -7 5 -13 q-32 -65 -46.5 -132.5 q-14.5 -67.5 -37.5 -130.5 q-20 -45 -42 -90 q-31 -38 -62 -78 l-7 -2 q20 40 72 137 q46 110 62 231 l-6 0 l-20 -25 l-29 -13 q-3 3 10 29 q32 42 65 85 l14 9 ZM215 135 l0 -13 l-23 -14 l0 -16 q20 -2 41 4 l14 14 l10 6 q-6 -31 -32 -44 q-25 -7 -42 -11 q-7 2 -16 6 q-16 29 0 60 q16 2 37 12 l11 -4 ZM766 137 l43 -52 l8 -3 q5 -17 52 -110 q-1 -7 -3 -12 l-4 4 q-2 -4 -15 -17 l-41 11 l-2 6 l17 14 q1 10 -6 34 q-17 24 -22 41 q-15 14 -25 29 l-13 5 q-20 20 -7 45 l10 7 l8 -2 Z" /><glyph glyph-name="" unicode="&#x9898;" d="M400 701 q2 -4 6 -9 q-16 -140 -20 -279 q4 -42 8 -82 q53 18 137 49 l10 -11 q69 96 129 203 q0 16 0 33 q-58 2 -105 -25 l-7 -13 q-11 0 -27 5 q-17 18 5 35 q64 12 145 26 q32 -43 -2 -92 q-54 -90 -109 -177 q30 16 136 76 q55 24 107 -5 q31 -18 32 -51 q-7 -35 -34 -58 q-43 -29 -110 -75 q-4 0 -9 0 l-2 -4 q-11 -6 -27 -6 q-30 -37 -36 -85.5 q-6 -48.5 -44 -75.5 q-11 -6 -22 -6 q-2 33 31 55 q15 52 47 159 q15 16 31 34 l9 2 q27 -14 8 -30 q-19 -16 -8 -29 q42 23 103 68 q11 6 33.5 34.5 q22.5 28.5 -11.5 40.5 q-30 25 -69 16 q-33 -11 -40 -11 l-3 -5 q-80 -37 -138 -100 q-7 0 -13 0 l-5 -8 l-7 0 q-18 10 -5.5 22.5 q12.5 12.5 7.5 28.5 q-75 -27 -155 -57 q-21 -61 -47 -118 q-5 -21 -8 -41 l14 -8 q18 18 38 38 q35 88 44 107 l7 -4 q3 -35 -11 -68 q-35 -69 -47 -93 q38 -20 77 -38 q64 -45 131 -81 q55 -16 110 -39 q120 2 292 11 l2 -11 l-22 -6 l-2 4 l-7 -4 l-2 4 q-5 -4 -9 -7 q-54 -4 -98 -7 l-5 -4 q-110 -18 -216 4 q-31 23 -68 31 q-69 48 -143 89 q-51 32 -100 10 q-16 19 -14 47 q-18 0 -31.5 9.5 q-13.5 9.5 -27.5 5.5 q-10 -33 -27 -62 q17 -41 -6 -77 l-6 -2 l-6 -6 l-9 0 q-14 42 0 91 q25 45 31 98 l18 7 q29 47 37 71 q-53 -19 -126 -46 q-39 -20 -78 -38 q-12 -2 -22 -4 q-19 8 0 24 q110 44 222 93 q-6 6 -20 48 q-6 49 -16 100 q-15 107 25 201 l9 -6 q-6 -43 -9 -92 q47 -2 97 6 q13 -6 21 -6 q0 42 5 136 q-2 2 -4 5 l-20 -21 l-8 -2 q-19 9 -1 21 q18 12 18 24 l32 16 l10 -3 ZM335 504 q-25 7 -44 -15 q-19 -22 -38 -3 q-8 -41 2 -84 q2 -6 6 -12 l31 27 q18 23 37 47 q16 20 8 38 l-2 2 ZM360 467 q-23 -27 -27 -34 q8 -16 27 -16 l1 48 l-1 2 ZM333 396 q-7 0 -12 0 q-27 -25 -60 -32 l4 -11 l9 -6 q12 -30 7 -61 q29 6 87 31 q-4 7 -8 71 q-11 0 -27 8 ZM353 286 l-55 -23 l-6 -6 l6 -2 q8 -12 -1 -20 l-9 -5 q-35 -58 -35 -65 q27 -14 44 -18 q20 72 58 137 l-2 2 ZM695 190 q6 0 26 -4 q39 -51 76 -101 l24 -2 q0 -9 -8 -20 q-29 -16 -52 9 q-20 48 -55 89 l-25 4 l0 16 l14 9 Z" /><glyph glyph-name="" unicode="&#xfe43;" d="M826 65 q33 0 41.5 -10.5 q8.5 -10.5 9.5 -35.5 l0 -101 q0 -32 -9.5 -42 q-9.5 -10 -35.5 -10 q-29 0 -42.5 9 q-13.5 9 -13.5 43 l0 31 q0 12 -6 18.5 q-6 6.5 -29 6.5 l-598 0 q-18 0 -24.5 12 q-6.5 12 -6.5 33 q0 25 6 35.5 q6 10.5 25 10.5 l683 0 ZM777 4 q12 0 20.5 -6 q8.5 -6 8.5 -21 l0 -59 q0 -10 2.5 -15.5 q2.5 -5.5 20.5 -5.5 q11 0 15 3.5 q4 3.5 4 17.5 l0 92 q0 16 -13.5 20.5 q-13.5 4.5 -28.5 4.5 l-625 0 q-25 0 -32 -3 q-7 -3 -7 -13 q0 -8 1 -11 q1 -3 4.5 -4 q3.5 -1 11 -0.5 q7.5 0.5 20.5 0.5 l598 0 Z" /><glyph glyph-name="" unicode="&#xfe44;" d="M173 456 q-33 0 -41.5 10.5 q-8.5 10.5 -9.5 35.5 l0 101 q0 32 9.5 42 q9.5 10 35.5 10 q29 0 42.5 -9 q13.5 -9 13.5 -43 l0 -31 q0 -12 6 -18.5 q6 -6.5 29 -6.5 l598 0 q18 0 24.5 -12 q6.5 -12 6.5 -33 q0 -25 -6 -35.5 q-6 -10.5 -25 -10.5 l-683 0 ZM222 517 q-12 0 -20.5 6 q-8.5 6 -8.5 21 l0 59 q0 10 -2.5 15.5 q-2.5 5.5 -20.5 5.5 q-11 0 -15 -3.5 q-4 -3.5 -4 -17.5 l0 -92 q0 -16 13.5 -20.5 q13.5 -4.5 28.5 -4.5 l625 0 q25 0 32 3 q7 3 7 13 q0 15 -6 15 q-6 0 -31 0 l-598 0 Z" /><glyph glyph-name="" unicode="&#xff01;" d="M181 232 q-2 0 -5 2 q-3 2 -4 10 l-6 285 q-1 8 0.5 14.5 q1.5 6.5 9.5 8.5 q6 1 7.5 1 q1.5 0 5.5 -1 l-1 0 q12 -3 9 -22 l-5 -286 q0 -9 -4.5 -10.5 q-4.5 -1.5 -6.5 -1.5 ZM159 126 q0 11 7 17.5 q7 6.5 18 6.5 q11 0 18 -6.5 q7 -6.5 7 -17.5 q0 -23 -25 -23 q-11 0 -18 6 q-7 6 -7 17 Z" /><glyph glyph-name="" unicode="&#xff08;" d="M875 609 q2 2 6.5 4 q4.5 2 6.5 -1 q2 -3 0 -5 q-29 -32 -49.5 -65 q-20.5 -33 -35.5 -71 q-14 -38 -20 -80.5 q-6 -42.5 -6 -77.5 q0 -51 9.5 -99 q9.5 -48 21.5 -77 q12 -29 29.5 -59 q17.5 -30 40.5 -52 q9 -6 4 -11 l-2 -3 q-4 -2 -9 1 q-33 32 -57.5 65.5 q-24.5 33.5 -41.5 73.5 q-18 38 -23 77.5 q-5 39.5 -5 83.5 q0 34 7.5 69.5 q7.5 35.5 18.5 64.5 q17 45 44.5 88 q27.5 43 60.5 74 Z" /><glyph glyph-name="" unicode="&#xff09;" d="M129 609 q33 -31 60.5 -74 q27.5 -43 44.5 -88 q11 -29 18.5 -64.5 q7.5 -35.5 7.5 -69.5 q0 -44 -5 -83.5 q-5 -39.5 -23 -77.5 q-17 -40 -41.5 -73.5 q-24.5 -33.5 -57.5 -65.5 q-6 -3 -9 -1 l-2 3 q-2 2 -1.5 5 q0.5 3 5.5 6 q23 22 40.5 52 q17.5 30 29.5 59 q12 29 21.5 77 q9.5 48 9.5 99 q0 35 -6 77.5 q-6 42.5 -20 80.5 q-15 38 -35.5 71 q-20.5 33 -49.5 65 q-3 2 0 5 q2 3 6.5 1 q4.5 -2 6.5 -4 Z" /><glyph glyph-name="" unicode="&#xff0c;" d="M187 101 q-1 -15 -8 -30.5 q-7 -15.5 -17.5 -29.5 q-10.5 -14 -23.5 -26 q-13 -12 -25 -20 q-5 -2 -8.5 1 q-3.5 3 0.5 7 q23 23 31.5 38.5 q8.5 15.5 10.5 23.5 q3 11 1.5 21 q-1.5 10 -15.5 18 q-15 6 -5 24 q2 4 9 5.5 q7 1.5 15 0.5 q16 -2 26 -9.5 q10 -7.5 9 -23.5 Z" /><glyph glyph-name="" unicode="&#xff1a;" d="M121 153 q0 9 7 15 q7 6 18 6 q11 0 18.5 -6 q7.5 -6 7.5 -15 q0 -11 -7.5 -17 q-7.5 -6 -18.5 -6 q-11 0 -18 6 q-7 6 -7 17 ZM121 28 q0 9 7 15.5 q7 6.5 18 6.5 q11 0 18.5 -6.5 q7.5 -6.5 7.5 -15.5 q0 -10 -7.5 -16 q-7.5 -6 -18.5 -6 q-11 0 -18 6 q-7 6 -7 16 Z" /><glyph glyph-name="" unicode="&#xff1b;" d="M128 152 q0 9 7 15 q7 6 18 6 q11 0 18.5 -6 q7.5 -6 7.5 -15 q0 -11 -7.5 -17 q-7.5 -6 -18.5 -6 q-11 0 -18 6 q-7 6 -7 17 ZM181 23 q-1 -14 -7.5 -28 q-6.5 -14 -15.5 -27 q-9 -13 -20.5 -24 q-11.5 -11 -23.5 -18 q-2 -1 -3.5 0 q-1.5 1 1.5 3 q20 20 28 36.5 q8 16.5 10 23.5 q6 22 -10 32 q-8 4 -11.5 10.5 q-3.5 6.5 -1.5 11.5 q1 5 8.5 7.5 q7.5 2.5 14.5 2.5 q32 -3 31 -30 Z" /><glyph glyph-name="" unicode="&#xff1f;" d="M207 553 q51 0 78 -27 q27 -27 27 -60 q0 -30 -19.5 -54 q-19.5 -24 -41.5 -46 l-16 -14 q-24 -26 -31.5 -55 q-7.5 -29 -8.5 -60 q1 -6 -3.5 -10.5 q-4.5 -4.5 -10.5 -4.5 q-9 0 -7 20 q0 38 9 68 q9 30 31 54 q5 6 12 12 q7 6 12 12 q17 18 32 38.5 q15 20.5 15 41.5 q1 23 -20.5 43.5 q-21.5 20.5 -58.5 20.5 q-21 0 -39 -6.5 q-18 -6.5 -32 -15.5 q-14 -9 -24.5 -19 q-10.5 -10 -17.5 -17 l-5 0 q-1 1 -4 5 q-3 4 -4 7 q-5 7 0 12 q7 7 18.5 16.5 q11.5 9.5 27.5 18 q16 8.5 36.5 14.5 q20.5 6 44.5 6 ZM163 126 q0 25 25 25 q26 0 26 -25 q0 -10 -7 -16.5 q-7 -6.5 -19 -6.5 q-11 0 -18 6.5 q-7 6.5 -7 16.5 Z" /><glyph glyph-name="" unicode="&#xff5e;" d="M416 271 q-31 0 -44.5 -8.5 q-13.5 -8.5 -29.5 -21.5 q-2 -1 -4 -2 q-2 -1 -6 6 q-4 8 1 13 q15 18 37.5 31.5 q22.5 13.5 44.5 13.5 q19 0 37 -6 q18 -6 35 -14 l23 -10 l-1 0 q15 -7 35 -13.5 q20 -6.5 46 -6.5 q23 0 39.5 9.5 q16.5 9.5 29.5 23.5 q2 2 4 0 q2 -2 4 -5 q5 -8 -1 -16 q-14 -17 -34 -31 q-20 -14 -43 -14 q-23 0 -45 9 q-22 9 -43 18 q-19 9 -40.5 16.5 q-21.5 7.5 -44.5 7.5 Z" /><glyph glyph-name="" unicode="&#xffe5;" d="M451 321 l-113 169 q-5 7 -10 12.5 q-5 5.5 -8 10.5 q-6 8 -10 13.5 q-4 5.5 -11 16.5 q-8 10 -1 10 q7 1 17.5 0.5 q10.5 -0.5 17.5 -1.5 q6 -2 14 -12 l18 -28 l13 -23 l48 -73 l74 -114 l121 186 l16 26 l18 26 q7 10 15 12 q5 2 14.5 2 q9.5 0 16.5 -1 q2 0 3.5 -2 q1.5 -2 -2.5 -7 q-13 -16 -19 -26 l-19 -27 q-3 -5 -11.5 -17 q-8.5 -12 -19.5 -28.5 q-11 -16.5 -24 -35.5 q-13 -19 -26 -38 q-31 -45 -68 -99 l-1 -20 l139 0 q3 0 3 -6 l0 -18 q0 -6 -3 -6 l-139 0 q0 -15 -0.5 -30.5 q-0.5 -15.5 0.5 -30.5 q0 -11 0 -20.5 q0 -9.5 1 -19.5 q1 -10 1.5 -20 q0.5 -10 0.5 -20 q0 -3 -3 -6 q-6 -1 -15 -1 q-9 0 -13 1 q-5 2 -5 5 q2 11 2 23.5 q0 12.5 0 25.5 l0 84 l0 9 l-149 0 q-3 0 -3 6 l0 18 q0 6 3 6 l150 0 l0 18 l-33 50 Z" /></font>
</defs>
</svg>
