<?xml version="1.0" standalone="no"?>
<!DOCTYPE svg PUBLIC "-//W3C//DTD SVG 1.1//EN" "http://www.w3.org/Graphics/SVG/1.1/DTD/svg11.dtd" >
<!--
2013-9-30: Created.
-->
<svg>
<metadata>
Created by iconfont
</metadata>
<defs>

<font id="iconfont" horiz-adv-x="1024" >
  <font-face
    font-family="iconfont"
    font-weight="500"
    font-stretch="normal"
    units-per-em="1024"
    ascent="896"
    descent="-128"
  />
    <missing-glyph />
    
    <glyph glyph-name="biaoqing" unicode="&#983535;" d="M872.802928 140.00594 872.864326 140.00594 872.864326 140.375354ZM807.273469 679.272957c-162.808016 162.836669-427.736874 162.836669-590.544891 0-162.836669-162.806993-162.836669-427.736874 0-590.543867 162.808016-162.837692 427.737898-162.837692 590.544891 0C970.110137 251.537106 970.110137 516.465964 807.273469 679.272957M764.893242 131.07964c-139.444912-139.443889-366.370225-139.414213-505.798764 0-139.459239 139.473565-139.459239 366.354875 0 505.827417 139.428539 139.429563 366.354875 139.460262 505.798764 0C904.336108 497.478518 904.336108 270.523529 764.893242 131.07964M381.724423 427.97863c24.783453 0 44.953841 20.169365 44.953841 44.967144 0 24.828478-20.170388 45.027519-44.953841 45.027519-24.842805 0-45.013193-20.199041-45.013193-45.027519C336.71123 448.147996 356.881618 427.97863 381.724423 427.97863M640.680243 427.904952c24.812105 0 45.010123 20.213367 45.010123 45.01217 0 24.827455-20.198018 44.99682-45.010123 44.99682-24.785499 0-44.953841-20.169365-44.953841-44.99682C595.726401 448.11832 615.894743 427.904952 640.680243 427.904952M642.245901 276.941706l-2.453888-0.798179c-40.310078-18.248619-83.548858-27.5341-128.411625-27.5341-46.343491 0-90.173742 9.375531-130.305765 27.799136l-2.425236 0.741897c-1.508353 0.413416-3.548826 1.003863-6.092765 1.003863-14.757099 0-26.734898-11.977799-26.734898-26.675546 0-6.978948 3.282766-13.988596 8.695033-19.253506l-0.325411-1.62501 6.831592-3.076058c47.911196-21.679765 100.021018-33.095769 150.681838-33.095769 51.608402 0 102.180194 11.120268 150.978597 33.361829 8.575306 4.703115 13.928221 13.721513 13.928221 23.511483C676.611593 268.541385 661.027663 282.709059 642.245901 276.941706"  horiz-adv-x="1024" />

    
    <glyph glyph-name="xiala" unicode="&#58908;" d="M511.84 4.91776 0 687.37024l1023.68 0L511.84 4.91776z"  horiz-adv-x="1024" />

    
    <glyph glyph-name="xiala1" unicode="&#58905;" d="M510.224052 64.58111c-6.066159 0-11.81407 2.703575-15.692401 7.356548l-362.086665 437.065334c-7.160073 8.67252-5.966898 21.519106 2.705622 28.67918 8.631588 7.198959 21.459754 6.006807 28.678156-2.664689L510.224052 116.887406l346.374822 418.131099c7.220449 8.631588 20.047592 9.784854 28.67918 2.664689 8.670473-7.160073 9.864672-20.006659 2.705622-28.67918L525.915429 71.938682C522.037099 67.284685 516.290211 64.58111 510.224052 64.58111z"  horiz-adv-x="1024" />

    
    <glyph glyph-name="error" unicode="&#58928;" d="M512 832.534c-247.74 0-448.534-200.824-448.534-448.534s200.824-448.534 448.534-448.534 448.534 200.824 448.534 448.534-200.824 448.534-448.534 448.534zM512-4.728c-214.698 0-388.729 174.031-388.729 388.729s174.032 388.728 388.729 388.728 388.728-174.032 388.728-388.729-174.031-388.728-388.728-388.728zM567.388 384.006l97.722 97.222c15.136 15.361 15.136 40.299 0 55.69-15.136 15.392-39.654 15.392-54.789 0l-98.316-97.814-98.319 97.814c-15.114 15.392-39.65 15.392-54.792 0s-15.142-40.33 0-55.69l97.727-97.224-97.732-97.233c-15.136-15.392-15.136-40.299 0-55.69s39.654-15.392 54.789 0l98.326 97.824 98.331-97.824c15.142-15.392 39.65-15.392 54.792 0 15.114 15.392 15.114 40.299 0 55.69l-97.738 97.235z"  horiz-adv-x="1024" />

    
    <glyph glyph-name="xiala2" unicode="&#59001;" d="M155.204535 821.289545C126.615552 849.878528 80.483035 850.097883 51.719826 821.334674L51.719826 821.334674C23.155712 792.77056 23.012571 746.602277 51.378322 718.236526L827.770953-58.156105C884.758821-115.143973 977.122889-115.175424 1034.142208-58.156105L1810.534839 718.236526C1838.910318 746.612005 1838.956544 792.571465 1810.193335 821.334674L1810.193335 821.334674C1781.629294 849.898715 1735.477321 850.05824 1706.708626 821.289545L982.721463 97.302382C954.132553 68.713399 907.960393 68.533687 879.191698 97.302382L155.204535 821.289545 155.204535 821.289545Z"  horiz-adv-x="1902" />

    
    <glyph glyph-name="success" unicode="&#58918;" d="M509.541507-63.260533c-246.245334 0-446.565708 200.319351-446.565708 446.570825 0 246.24431 200.319351 446.563662 446.565708 446.563662 246.25045 0 446.568778-200.319351 446.568778-446.563662C956.110285 137.058818 755.790934-63.260533 509.541507-63.260533L509.541507-63.260533zM509.541507 765.792473c-210.905454 0-382.483204-171.57775-382.483204-382.482181 0-210.876802 171.57775-382.489344 382.483204-382.489344 210.874755 0 382.487298 171.607426 382.487298 382.489344C892.028804 594.213699 720.416262 765.792473 509.541507 765.792473L509.541507 765.792473zM509.541507 765.792473M723.834104 501.741611c-12.504802 12.406564-32.727379 12.280698-45.104267-0.252757L446.195783 266.403698l-102.932324 105.768929c-12.314467 12.664438-32.504298 12.888542-45.104267 0.64366-12.630668-12.285814-12.917194-32.509415-0.638543-45.105291l125.612882-129.092124c0.064468-0.093121 0.194428-0.093121 0.257873-0.189312 0.064468-0.064468 0.092098-0.191358 0.155543-0.257873 2.009773-1.977028 4.497431-3.188622 6.864338-4.52813 1.24127-0.671289 2.228761-1.785669 3.502777-2.297322 3.858888-1.596358 7.975649-2.38942 12.060687-2.38942 4.049223 0 8.099469 0.793062 11.929704 2.325975 1.24127 0.51063 2.201132 1.532913 3.377934 2.170432 2.394537 1.340531 4.882194 2.51631 6.927783 4.527107 0.061398 0.063445 0.091074 0.195451 0.189312 0.257873 0.064468 0.097214 0.160659 0.125867 0.257873 0.191358l255.400854 258.179131C736.462726 469.175915 736.33686 489.365746 723.834104 501.741611L723.834104 501.741611zM723.834104 501.741611"  horiz-adv-x="1024" />

    
    <glyph glyph-name="jietu" unicode="&#59080;" d="M907.226436 218.298074l-631.928417-0.002047c-28.842909 0-52.309366-23.465434-52.309366-52.309366l0-15.254425c0-28.842909 23.466458-52.30732 52.309366-52.30732l631.92944 0.002047c28.844955 0 52.31039 23.465434 52.31039 52.308343l0 15.253402C959.536826 194.833663 936.069345 218.298074 907.226436 218.298074L907.226436 218.298074zM752.47184 666.421254l-635.469056-0.002047c-28.842909 0-52.31039-23.466458-52.31039-52.309366l0-15.254425c0-28.842909 23.466458-52.30732 52.31039-52.30732l635.470079 0.002047c28.844955 0 52.31039 23.465434 52.31039 52.30732l0 15.254425C804.78223 642.956843 781.314749 666.421254 752.47184 666.421254L752.47184 666.421254zM342.861812 150.735305l-0.002047 628.393917c0 28.842909-23.466458 52.31039-52.309366 52.31039l-15.254425 0c-28.842909 0-52.30732-23.466458-52.30732-52.31039l0.002047-628.393917c0-28.845978 23.464411-52.31039 52.30732-52.31039l15.254425 0C319.397401 98.425939 342.861812 121.892397 342.861812 150.735305L342.861812 150.735305zM804.783253-10.845767l-0.002047 624.956631c0 28.842909-23.466458 52.31039-52.31039 52.31039l-15.253402 0c-28.842909 0-52.30732-23.466458-52.30732-52.31039l0.002047-624.956631c0-28.845978 23.464411-52.31039 52.30732-52.31039l15.254425 0C781.317819-63.155133 804.783253-39.688675 804.783253-10.845767L804.783253-10.845767zM342.861812 218.298074 382.796336 218.298074 382.796336 258.232598 342.861812 258.232598 342.861812 218.298074 342.861812 218.298074ZM382.796336 258.232598 422.73086 258.232598 422.73086 298.168146 382.796336 298.168146 382.796336 258.232598ZM422.731884 298.168146 462.666408 298.168146 462.666408 338.103694 422.731884 338.103694 422.731884 298.168146ZM462.666408 338.103694 502.601956 338.103694 502.601956 378.039241 462.666408 378.039241 462.666408 338.103694ZM502.602979 378.040265 542.538527 378.040265 542.538527 417.974789 502.602979 417.974789 502.602979 378.040265ZM542.538527 417.974789 582.474075 417.974789 582.474075 457.910337 542.538527 457.910337 542.538527 417.974789ZM582.474075 457.910337 622.409622 457.910337 622.409622 497.845884 582.474075 497.845884 582.474075 457.910337ZM622.410646 497.845884 662.344147 497.845884 662.344147 537.781432 622.410646 537.781432 622.410646 497.845884ZM662.344147 537.781432 702.279694 537.781432 702.279694 577.715957 662.344147 577.715957 662.344147 537.781432ZM702.280718 617.651504 702.280718 577.715957 742.215242 577.715957 742.215242 617.651504 702.280718 617.651504ZM462.668455 337.431382 502.601956 337.431382 502.601956 377.365906 462.668455 377.365906 462.668455 337.431382 462.668455 337.431382ZM502.601956 377.365906 542.537504 377.365906 542.537504 417.301454 502.601956 417.301454 502.601956 377.365906ZM542.538527 417.302477 582.473051 417.302477 582.473051 457.237001 542.538527 457.237001 542.538527 417.302477ZM582.473051 457.237001 622.408599 457.237001 622.408599 497.173572 582.473051 497.173572 582.473051 457.237001ZM622.409622 497.174596 662.344147 497.174596 662.344147 537.108097 622.409622 537.108097 622.409622 497.174596ZM662.344147 537.108097 702.280718 537.108097 702.280718 577.043644 662.344147 577.043644 662.344147 537.108097ZM702.280718 577.043644 742.216265 577.043644 742.216265 616.979192 702.280718 616.979192 702.280718 577.043644ZM742.216265 616.979192 782.15079 616.979192 782.15079 656.91474 742.216265 656.91474 742.216265 616.979192ZM782.15079 656.91474 822.086337 656.91474 822.086337 696.849264 782.15079 696.849264 782.15079 656.91474ZM822.087361 736.784812 822.087361 696.850288 862.020862 696.850288 862.020862 736.784812 822.087361 736.784812ZM862.020862 776.719336 862.020862 736.784812 901.954363 736.784812 901.954363 776.719336 862.020862 776.719336Z"  horiz-adv-x="1024" />

    
    <glyph glyph-name="jietu1" unicode="&#59088;" d="M100.197 674.275v-483.634c0-13.355 10.827-24.179 24.182-24.179 13.353 0 24.182 10.824 24.182 24.18V698.453h725.446c13.355 0 24.182 10.828 24.182 24.182 0 13.355-10.826 24.183-24.182 24.183H148.56V867.727c0 13.355-10.83 24.179-24.182 24.179-13.355 0-24.182-10.824-24.182-24.179V746.82H51.834c-13.356 0-24.182-10.828-24.182-24.183 0-13.354 10.826-24.182 24.182-24.182h48.363v-24.179z m666.625-507.813c0 63.806-79.01 290.177-147.237 290.177-66.581 0-132.483-145.09-132.483-145.09s-53.262 50.179-120.908 48.365c-59.049-1.586-120.908-193.453-120.908-193.453h521.536zM390.376 311.55c56.2 0 96.726-72.545 96.726-72.545s81.194 169.273 132.483 169.273c30.622 0 98.874-143.413 98.874-207.22H317.831c0 0.001 42.17 110.492 72.545 110.492z m580.357-241.816h-72.544V577.546c0 13.355-10.826 24.184-24.182 24.184-13.355 0-24.182-10.829-24.182-24.184v-507.813H124.38c-13.355 0-24.182-10.826-24.182-24.181 0-13.353 10.827-24.179 24.182-24.179h725.447v-120.908c0-13.355 10.827-24.183 24.182-24.183s24.182 10.828 24.182 24.183V21.373h72.544c13.355 0 24.182 10.827 24.182 24.179-0.001 13.355-10.827 24.181-24.183 24.181z m-531.995 459.45c0 40.067-32.478 72.548-72.544 72.548-40.066 0-72.544-32.48-72.544-72.547 0-40.065 32.479-72.545 72.544-72.545 40.067 0 72.544 32.48 72.544 72.545z m-96.726 0c0 13.356 10.827 24.184 24.182 24.184s24.182-10.828 24.182-24.183c0-13.354-10.827-24.182-24.182-24.182s-24.182 10.828-24.182 24.182z"  horiz-adv-x="1024" />

    
    <glyph glyph-name="xiaoxix" unicode="&#58933;" d="M739.555556 497.777778a54.613333 54.613333 0 0 1-39.992889-16.896A54.840889 54.840889 0 0 1 682.666667 440.888889c0-15.36 5.632-28.728889 16.896-39.992889A54.727111 54.727111 0 0 1 739.555556 384c15.36 0 28.728889 5.632 39.992888 16.896A54.499556 54.499556 0 0 1 796.444444 440.888889c0 15.36-5.688889 28.728889-16.896 39.992889A54.613333 54.613333 0 0 1 739.555556 497.777778z m-227.555556-398.222222a449.592889 449.592889 0 0 0-96.028444 10.695111l-134.200889-80.952889 1.763555 132.494222a365.738667 365.738667 0 0 0-123.960889 120.433778A294.115556 294.115556 0 0 0 113.777778 440.775111c0 61.667556 17.806222 118.727111 53.361778 171.178667 35.555556 52.451556 83.854222 93.866667 144.896 124.416C373.077333 766.919111 439.751111 782.222222 512.056889 782.222222c110.193778 0 204.117333-33.336889 281.770667-100.010666C871.424 615.537778 910.222222 535.04 910.222222 440.888889c0-94.208-38.741333-174.648889-116.394666-241.322667C716.174222 132.835556 622.250667 99.555556 512 99.555556H512zM512 839.111111c-82.375111 0-158.549333-17.806222-228.408889-53.361778-69.973333-35.555556-125.155556-83.854222-165.831111-144.839111A353.848889 353.848889 0 0 1 56.888889 440.888889a348.728889 348.728889 0 0 1 45.738667-173.795556A409.713778 409.713778 0 0 1 227.555556 130.673778V-71.111111l199.111111 120.888889A529.066667 529.066667 0 0 1 512 42.666667c82.375111 0 158.549333 17.806222 228.408889 53.361777 69.973333 35.498667 125.155556 83.797333 165.831111 144.839112A353.848889 353.848889 0 0 1 967.111111 440.888889a353.848889 353.848889 0 0 1-60.871111 199.964444c-40.618667 61.041778-95.857778 109.340444-165.831111 144.896C670.549333 821.304889 594.375111 839.111111 512 839.111111zM284.444444 497.777778a54.613333 54.613333 0 0 1-39.992888-16.896A54.840889 54.840889 0 0 1 227.555556 440.888889c0-15.36 5.632-28.728889 16.896-39.992889A54.727111 54.727111 0 0 1 284.444444 384c15.36 0 28.728889 5.632 39.992889 16.896A54.499556 54.499556 0 0 1 341.333333 440.888889c0 15.36-5.688889 28.728889-16.896 39.992889A54.613333 54.613333 0 0 1 284.444444 497.777778z m227.555556 0a54.613333 54.613333 0 0 1-39.992889-16.896A54.840889 54.840889 0 0 1 455.111111 440.888889c0-15.36 5.632-28.728889 16.896-39.992889A54.727111 54.727111 0 0 1 512 384c15.36 0 28.728889 5.632 39.992889 16.896A54.499556 54.499556 0 0 1 568.888889 440.888889c0 15.36-5.688889 28.728889-16.896 39.992889A54.613333 54.613333 0 0 1 512 497.777778z"  horiz-adv-x="1024" />

    
    <glyph glyph-name="checked" unicode="&#59229;" d="M512 832C264.6 832 64 631.4 64 384s200.6-448 448-448 448 200.6 448 448S759.4 832 512 832z m0-840c-216.1 0-392 175.9-392 392s175.9 392 392 392 392-175.9 392-392-175.9-392-392-392zM663.9 534.2L452.6 322.9l-92.5 92.5c-16.4 16.4-43 16.4-59.4 0s-16.4-43 0-59.4l122.2-122.2c16.4-16.4 43-16.4 59.4 0l241 241c16.4 16.4 16.4 43 0 59.4s-43 16.4-59.4 0z"  horiz-adv-x="1024" />

    
    <glyph glyph-name="error1" unicode="&#58630;" d="M512 830.016C757.92 830.016 958.016 629.952 958.016 384 958.016 138.08000000000004 757.92-62.01599999999996 512-62.01599999999996c-245.95200001 0-446.016 200.064-446.016 446.016C65.984 629.952 266.048 830.016 512 830.016zM512 1.9840000000000373C722.656 1.9840000000000373 894.016 173.34400000000005 894.016 384c0 210.624-171.36 382.016-382.016 382.016-210.624 0-382.016-171.36-382.016-382.016C129.984 173.34400000000005 301.376 1.9840000000000373 512 1.9840000000000373zM512 176m48 0a1.5 1.5 0 1 1-96 0 1.5 1.5 0 1 1 96 0ZM512 639.99999999c17.664 0 32-14.304 32-31.99999999l0-288c0-17.664-14.336-32-32-31.99999999s-32 14.336-32 31.99999999l0 288C480 625.696 494.336 640 512 639.99999999z"  horiz-adv-x="1024" />

    
    <glyph glyph-name="tongxunlu" unicode="&#58913;" d="M959.456 95.136c-46.048 79.584-203.68 154.432-328.64 197.376-22.656 7.808-43.712 28.768-44 52.704v0.448c-0.16 16.544 12.256 32.288 24.352 43.584 37.184 35.072 115.072 127.84 115.072 253.312C726.24 756.096 641.664 864 512 864c-129.664 0-213.12-112.352-213.12-221.44 0-125.472 74.272-218.24 111.456-253.312 12.096-11.296 25.6-27.04 25.408-43.584v-0.448c-0.288-23.936-22.4-44.896-45.056-52.704-124.96-42.944-280.064-117.792-326.176-197.376-27.84-48.128 0.576-103.648 15.584-117.376 43.52-46.176 295.072-55.712 431.232-56.192h1.344c136.16 0.48 379.936 9.472 431.264 56.192 14.976 13.728 43.392 69.248 15.52 117.376"  horiz-adv-x="1024" />

    
    <glyph glyph-name="xiala3" unicode="&#58938;" d="M896 544a32 32 0 0 1-32 32c-8.288 0-15.776-3.232-21.456-8.4l-0.08 0.08L512 267.248 181.52 567.68l-0.08-0.08A31.744 31.744 0 0 1 160 576a32 32 0 0 1-32-32c0-9.392 4.112-17.744 10.544-23.6l-0.064-0.08 352-320 0.064 0.08c5.68-5.168 13.168-8.4 21.456-8.4s15.776 3.232 21.456 8.416l0.08-0.08 352 320-0.08 0.08c6.432 5.84 10.544 14.208 10.544 23.584z"  horiz-adv-x="1024" />

    
    <glyph glyph-name="jietu2" unicode="&#59334;" d="M896 640h128v-128h-128V640z m0 256h128v-128h-128V896z m128-640a128 128 0 1 0-128 128 128 128 0 0 0 128-128z m-179.968 0a51.2 51.2 0 1 1 51.2 52.032 51.2 51.2 0 0 1-51.2-52.032zM704 192v-64H576v64H384a128 128 0 0 0-128 128h320V640a128 128 0 0 0 128-128v-192h64v-128h-64zM638.976 308.032a52.032 52.032 0 1 1 51.2-52.032 51.52 51.52 0 0 1-51.2 52.032zM768 0a128 128 0 1 0-128 128 128 128 0 0 0 128-128z m-129.024 52.032a52.032 52.032 0 1 1 51.2-52.032 51.52 51.52 0 0 1-51.2 52.032zM640 896h128v-128h-128V896zM384 896h128v-128H384V896zM128 640H0V896h256v-128H128v-128z m0-256H0V512h128v-128z m0-256H0v128h128v-128z m0-256H0v128h128v-128z m256 0H256v128h128v-128z"  horiz-adv-x="1024" />

    
    <glyph glyph-name="jietu11" unicode="&#59319;" d="M192.037 832.132h64.012V64.27999999999997h-64.012zM256.05 128.19799999999998h704.137v-63.919H256.05zM768.149 447.791h64.012v-511.349h-64.012zM64.25 704.216h511.862v-63.919H64.25zM233.466 150.78599999999994l639.877 639.876 45.197-45.197L278.664 105.59000000000003z"  horiz-adv-x="1024" />

    
    <glyph glyph-name="xiaoxi" unicode="&#58914;" d="M924.850087 4.85287l-46.747826 128.578782 11.397565 18.387478a433.107478 433.107478 0 0 1 57.165913 146.120348c45.768348 235.386435-107.965217 463.337739-343.396174 509.106087C367.838609 852.813913 139.931826 699.035826 94.163478 463.649391 48.39513 228.173913 202.128696 0.311652 437.559652-45.456696a432.840348 432.840348 0 0 1 337.92 74.841044l17.497044 12.688695 131.873391-37.220173z m41.850435 15.181913a44.521739 44.521739 0 0 0-53.960348-58.056348l-111.081739 31.387826a477.45113 477.45113 0 0 0-372.602435-82.543304C169.494261-38.733913 0 212.591304 50.44313 472.153043c50.44313 259.561739 301.768348 429.056 561.330087 378.61287 259.561739-50.487652 429.056-301.768348 378.61287-561.330087a477.673739 477.673739 0 0 0-63.042783-161.079652l39.357218-108.321391zM286.898087 392.592696m-44.521739 0a44.521739 44.521739 0 1 1 89.043478 0 44.521739 44.521739 0 1 1-89.043478 0ZM517.87687 392.592696m-44.52174 0a44.521739 44.521739 0 1 1 89.043479 0 44.521739 44.521739 0 1 1-89.043479 0ZM748.855652 392.592696m-44.521739 0a44.521739 44.521739 0 1 1 89.043478 0 44.521739 44.521739 0 1 1-89.043478 0Z"  horiz-adv-x="1024" />

    
    <glyph glyph-name="icon_add" unicode="&#60303;" d="M542.308283 415.999808H926.290631c17.672498 0 31.998785-14.326287 31.998785-31.998785s-14.326287-31.998785-31.998785-31.998785H542.308283v-383.981324c0-17.672498-14.326287-31.998785-31.998785-31.998785s-31.998785 14.326287-31.998785 31.998785V352.003262H94.330412c-17.672498 0-31.998785 14.326287-31.998785 31.998785s14.326287 31.998785 31.998785 31.998784h383.981325V799.981133c0 17.672498 14.326287 31.998785 31.998784 31.998785s31.998785-14.326287 31.998785-31.998785v-383.981325z"  horiz-adv-x="1024" />

    
    <glyph glyph-name="icon_addperson" unicode="&#60304;" d="M767.987209 144.01116V272.005276c0 17.672498 14.326287 31.998785 31.998784 31.998785s31.998785-14.326287 31.998785-31.998785v-127.994116H959.977871c17.672498 0 31.998785-14.326287 31.998785-31.998784s-14.326287-31.998785-31.998785-31.998785H831.984778v-127.994116c0-17.672498-14.326287-31.998785-31.998785-31.998785s-31.998785 14.326287-31.998784 31.998785v127.995139H639.994116c-17.672498 0-31.998785 14.326287-31.998785 31.998785s14.326287 31.998785 31.998785 31.998785h127.993093zM606.553493 213.543793l-0.116657-0.069585c-20.713764 23.240307-30.440289 51.80283-30.44029 90.530877 0 28.667923 9.048073 53.575196 25.279757 78.742388 5.132904 7.958252 10.5728 15.404852 18.23327 25.27464-3.815909-4.916986 13.59053 17.342993 17.306154 22.291702 24.740474 32.948413 35.176151 58.473763 35.176151 97.680717v95.995331c0 93.106538-66.784032 159.991878-159.992901 159.991877-93.208868 0-159.991878-66.88534-159.991878-159.991877v-95.995331c0-39.206954 10.435677-64.732303 35.176151-97.680717 3.677762-4.897543 20.762883-26.750247 17.48114-22.516829 7.569396-9.757225 12.964266-17.151635 18.058284-25.049513 16.231683-25.166169 25.279756-50.074466 25.279756-78.742388 0-88.693018-50.975998-123.93773-168.494528-164.215063a8615.7644 8615.7644 0 0 0-19.303648-6.574742 1957.252183 1957.252183 0 0 1-18.833951-6.501064c-36.761252-12.935614-60.7015-23.558555-79.425957-36.001959-14.718213-9.780761-29.498848-26.513864-44.340881-50.198285-4.692882-7.487531-2.426259-17.361413 5.061272-22.053272a16.001439 16.001439 0 0 1 8.495488-2.441609h412.837537c17.672498 0 31.998785-14.326287 31.998784-31.998785s-14.326287-31.998785-31.998784-31.998785H82.765005c-26.508747 0-47.997154 21.48943-47.997154 47.997154 0 3.232624 0.326435 6.456039 0.974188 9.622149 11.691273 57.130162 41.951461 101.920274 90.781586 134.370336 96.3013 63.996546 257.482259 63.996546 257.482259 159.991878 0 63.996546-95.996354 95.689363-95.996354 223.989447v95.995331c0 128.257106 95.241154 223.989447 223.988423 223.989447s223.989447-95.732341 223.989448-223.989447v-95.995331c0-128.300085-95.994308-159.991878-95.994308-223.989447 0-22.995737 9.187243-40.481993 24.490787-54.659901 0.013303-0.010233 0.024559-0.022513 0.036839-0.033769 0.214894-0.199545 0.431835-0.398066 0.649799-0.596587 2.817162-2.831488 4.836145-4.968152 6.028297-6.426363 5.931083-7.256264-0.242524-26.761504-10.867512-34.57547-10.624988-7.813966-31.135114-11.416004-46.880726-0.806365-0.607844 0.409322-2.90619 2.62171-6.897084 6.63921z"  horiz-adv-x="1024" />

    
    <glyph glyph-name="icon_addressbook" unicode="&#60305;" d="M863.98254 831.978894H224.014007c-53.017494 0-95.995331-42.97886-95.995332-95.995331v-159.991877h-31.998784c-17.671475 0-31.998785-14.325263-31.998785-31.998785s14.32731-31.998785 31.998785-31.998785h31.998784v-255.988232h-31.998784c-17.671475 0-31.998785-14.325263-31.998785-31.998785s14.32731-31.998785 31.998785-31.998785h31.998784v-159.991877c0-53.017494 42.97886-95.995331 95.995332-95.995331h639.969556c53.017494 0 95.995331 42.97886 95.995331 95.995331V735.983563c-0.001023 53.016471-42.97886 95.995331-95.996354 95.995331z m31.998785-799.961434c0-17.673521-14.32731-31.998785-31.998785-31.998785H224.014007c-17.671475 0-31.998785 14.325263-31.998785 31.998785V192.009338h63.996546c17.671475 0 31.998785 14.325263 31.998785 31.998784 0 17.672498-14.32731 31.998785-31.998785 31.998785h-63.996546V511.994116h63.996546c17.671475 0 31.998785 14.325263 31.998785 31.998785s-14.32731 31.998785-31.998785 31.998785h-63.996546V735.983563c0 17.672498 14.32731 31.998785 31.998785 31.998785h639.969556c17.671475 0 31.998785-14.325263 31.998785-31.998785v-703.966103zM702.803627 331.160561c-2.945075 1.183965-5.835915 1.769296-8.600888 1.769297-9.31618 0-17.663288-6.072299-27.530007-18.430768-1.461281-1.837858-2.738367-3.52529-5.234211-6.896061-14.299681-19.305695-21.717627-24.88169-36.490076-20.212344-19.639293 6.17156-37.428448 17.811668-63.325258 44.131103-24.885783 25.297153-32.943296 36.541241-39.920198 51.995211a132.419915 132.419915 0 0 1-1.827624 3.966335c-7.554046 15.692401-1.355881 25.541723 20.494776 44.105521a619.619066 619.619066 0 0 1 3.472078 2.970658 170.380482 170.380482 0 0 1 1.655709 1.441838c15.421224 13.542434 21.182438 29.688159 16.139586 39.58967-12.866029 25.258267-52.41886 83.198887-65.965388 95.577823-8.679683 7.942903-21.99085 6.418176-40.267099-7.153934-5.464455-4.062526-12.710486-11.083429-19.72218-20.907169-11.042497-15.47546-18.10024-33.564443-19.374256-54.298674-4.046153-65.875337 32.448016-148.60248 93.112677-209.950709 57.149605-57.768705 121.326253-86.84902 191.100386-86.84902 5.077645 0 10.187013 0.161682 15.335267 0.480954 21.49864 1.349741 40.185234 9.556657 56.06797 22.405289 5.655813 4.578272 10.561543 9.441023 14.682397 14.277168 2.508123 2.940982 4.29277 5.354961 5.328356 6.945179 2.476401 3.460822 5.273097 8.553817 6.870477 13.929244 2.124384 7.16212 1.421372 12.386098-2.484587 16.114003-14.795984 14.083763-79.847559 59.470463-93.517907 64.999386z"  horiz-adv-x="1024" />

    
    <glyph glyph-name="tongxunlucopy" unicode="&#59065;" d="M907.170909-128H151.970909c-38.772364 0-70.190545 32.768-70.283636 73.122909v128c0 20.200727 15.778909 36.584727 35.141818 36.584727 19.409455 0 35.141818-16.384 35.141818-36.584727v-128h755.293091V822.923636H151.924364v-164.584727c0-20.200727-15.732364-36.584727-35.141819-36.584727-19.362909 0-35.095273 16.384-35.095272 36.584727V822.877091C81.687273 863.232 113.105455 895.953455 151.970909 896H907.170909c38.772364 0 70.190545-32.768 70.237091-73.122909V-54.923636c0-40.354909-31.464727-73.076364-70.283636-73.122909zM316.648727 92.066909h408.389818a33.978182 33.978182 0 0 1 6.56291-0.651636c19.409455 0 35.141818 16.384 35.141818 36.584727 0 98.490182-53.434182 183.994182-131.816728 226.816a185.716364 185.716364 0 0 1 61.533091 138.891636c0 100.817455-78.801455 182.877091-175.616 182.877091-96.861091 0-175.662545-82.059636-175.662545-182.877091a185.716364 185.716364 0 0 1 61.533091-138.891636c-78.336-42.821818-131.770182-128.325818-131.770182-226.816a36.305455 36.305455 0 0 1 26.530909-35.467636l0.139636-0.465455h1.861819a33.978182 33.978182 0 0 1 13.172363 0zM83.269818 548.584727V647.400727a37.934545 37.934545 0 0 0-1.582545 10.891637V822.877091c0 5.259636 0.558545 10.426182 1.582545 15.36v0.698182h0.139637C90.437818 871.563636 118.458182 896 151.924364 896h755.293091c38.772364 0 70.190545-32.768 70.23709-73.122909V-54.923636c0-40.354909-31.464727-73.076364-70.283636-73.122909H151.970909c-38.772364 0-70.190545 32.768-70.283636 73.122909v128c0 3.816727 0.605091 7.447273 1.629091 10.891636v98.862545h68.654545c19.409455 0 35.141818 16.337455 35.141818 36.538182 0 20.200727-15.732364 36.584727-35.141818 36.584728H83.316364v73.122909h68.654545c19.409455 0 35.141818 16.384 35.141818 36.584727 0 20.200727-15.732364 36.584727-35.141818 36.584727H83.316364V475.415273h68.654545c19.409455 0 35.141818 16.384 35.141818 36.584727 0 20.200727-15.732364 36.584727-35.141818 36.584727H83.316364z"  horiz-adv-x="1024" />

    


  </font>
</defs>
</svg>
